<?xml version="1.0" standalone="no"?>
<!DOCTYPE svg PUBLIC "-//W3C//DTD SVG 1.1//EN" "http://www.w3.org/Graphics/SVG/1.1/DTD/svg11.dtd" >
<svg xmlns="http://www.w3.org/2000/svg">
<metadata></metadata>
<defs>
<font id="fontinbold" horiz-adv-x="1042" >
<font-face units-per-em="2048" ascent="1556" descent="-492" />
<missing-glyph horiz-adv-x="614" />
<glyph horiz-adv-x="2048" />
<glyph horiz-adv-x="2048" />
<glyph unicode="&#xd;" horiz-adv-x="2048" />
<glyph horiz-adv-x="1024" />
<glyph unicode=" "  horiz-adv-x="614" />
<glyph unicode="&#x09;" horiz-adv-x="614" />
<glyph unicode="&#xa0;" horiz-adv-x="614" />
<glyph unicode="!" horiz-adv-x="595" d="M113 1468v39q10 7 27.5 17t63 26.5t81.5 16.5q112 0 155 -36t43 -110q0 -58 -20 -172q-23 -132 -49.5 -355.5t-41.5 -381.5l-16 -158h-100l-94 967q-4 51 -16 88t-22 48zM156 111q0 60 42 101.5t101 41.5q56 0 96.5 -41.5t40.5 -101.5q0 -57 -40.5 -97.5t-96.5 -40.5 q-59 0 -101 40.5t-42 97.5z" />
<glyph unicode="&#x22;" horiz-adv-x="786" d="M41 1118q40 36 63.5 95t31.5 115.5t15.5 109t24.5 84.5t49 32h148l-23 -165q-30 -210 -186 -271q-25 -9 -71.5 -7t-51.5 7zM369 1118q40 36 63.5 95t31.5 115.5t15.5 109t24.5 84.5t49 32h147l-22 -165q-30 -210 -186 -271q-25 -9 -71.5 -7t-51.5 7z" />
<glyph unicode="#" horiz-adv-x="1441" d="M76 377l16 164q12 -2 31.5 -3.5t52 -2.5t58.5 -1.5t77.5 -1t83.5 -0.5q5 77 23 238q-270 2 -305 -6l16 164q12 -2 32 -3.5t51 -2t59.5 -1t76.5 -1t84 -0.5q17 191 17 290q0 38 -8.5 80.5t-8.5 55.5q60 45 105 45q23 0 39 -9t24 -21.5t12.5 -36.5t5 -41.5t0.5 -49.5 q0 -28 -30 -313h241q17 191 17 290q0 38 -8.5 80.5t-8.5 55.5q60 45 105 45q23 0 39 -9t24.5 -21.5t12.5 -36.5t5 -41.5t1 -49.5q0 -19 -31 -313h121h30q71 0 104.5 1t72.5 7.5t59 19.5q-6 -38 -19 -67.5t-30 -48.5t-38 -32t-45 -19t-50.5 -10t-54 -3.5t-55.5 0.5h-31h-82 q-4 -41 -13.5 -120t-13.5 -116h129h21q73 0 108 1t75.5 7.5t61.5 20.5q-6 -38 -19 -67.5t-30 -48.5t-38 -32t-45 -19t-50.5 -10t-54 -3.5t-55.5 0.5h-31h-86q-22 -220 -29 -377l-174 -39q14 71 23 139.5t18 160.5t12 116h-248q-20 -202 -28 -377l-170 -37q9 95 26.5 228.5 t22.5 187.5q-270 0 -303 -6zM545 532h246q5 45 12.5 124.5t11.5 111.5h-244q-16 -152 -26 -236z" />
<glyph unicode="$" horiz-adv-x="937" d="M72 1016q0 69 26.5 134t76.5 119t130.5 86.5t179.5 33.5v143q45 10 78 10q14 0 23.5 -4t14.5 -13.5t7.5 -19.5t2 -26.5t-1.5 -29.5t-2.5 -34l-2.5 -35q123 -20 191.5 -78t68.5 -131q0 -36 -16 -86q-3 46 -81.5 86t-178.5 52q-4 -56 -33 -381q55 -34 87 -56t81.5 -59 t79 -71t59.5 -78t44 -95.5t14 -109.5q0 -155 -116 -267t-302 -129l-10 -194h-121l14 194q-131 12 -218 77t-87 147q0 50 33 94q16 -60 104.5 -104t181.5 -52l33 416q-49 32 -73.5 49.5t-69.5 51.5t-69.5 58t-57 62t-49 72t-29 78t-12.5 90zM309 1096q0 -92 146 -191l20 322 q-74 -6 -120 -38.5t-46 -92.5zM512 145q67 13 110.5 54.5t43.5 113.5q0 78 -134 176q-1 -21 -20 -344z" />
<glyph unicode="%" horiz-adv-x="1787" d="M92 1034q0 162 108 263.5t281 101.5q139 0 229.5 -89t90.5 -249q-3 -156 -113 -261.5t-285 -105.5q-135 0 -223 87.5t-88 252.5zM305 0q534 761 717.5 1032t187.5 320q42 45 109 45q32 0 54 -14.5t22 -41.5q0 -39 -29.5 -87.5t-88.5 -120t-83 -105.5l-709 -1028h-180z M311 1077q0 -128 37.5 -204t104.5 -76q56 0 94.5 62t38.5 165q0 124 -41.5 197t-112.5 73q-56 0 -88.5 -58t-32.5 -159zM956 317q0 161 108.5 263t281.5 102q139 0 229 -89t90 -249q-3 -156 -112.5 -261.5t-284.5 -105.5q-135 0 -223.5 87.5t-88.5 252.5zM1176 360 q0 -128 37 -204t104 -76q56 0 94.5 62t38.5 165q0 124 -41.5 197.5t-112.5 73.5q-56 0 -88 -58.5t-32 -159.5z" />
<glyph unicode="&#x26;" horiz-adv-x="1554" d="M90 356q0 -165 120 -274t316 -109q100 0 213.5 37.5t188.5 102.5q190 -136 372 -136q120 0 183 54.5t63 136.5q-70 -37 -112 -37q-75 0 -154.5 38.5t-196.5 137.5q121 234 140 565q54 -4 73 -4q174 0 174 127q0 29 -4 45q-36 -32 -131 -32h-272l-29 -41q23 -105 23 -209 q0 -213 -74 -355q-207 214 -362 455q32 19 64.5 42t88.5 70t96.5 94t71.5 111t31 125q0 114 -95.5 190.5t-248.5 76.5q-192 0 -310 -100t-118 -257t141 -413q-119 -92 -185.5 -206.5t-66.5 -234.5zM315 508q0 118 84 199q201 -308 426 -512q-67 -56 -172 -56 q-95 0 -174 52.5t-121.5 137t-42.5 179.5zM434 1296q0 69 41.5 105.5t110.5 36.5q83 0 131.5 -55.5t48.5 -137.5q0 -155 -203 -293q-129 220 -129 344z" />
<glyph unicode="'" horiz-adv-x="425" d="M41 1118q40 36 63.5 95t31.5 115.5t15.5 109t24.5 84.5t49 32h148l-23 -165q-30 -210 -186 -271q-25 -9 -71.5 -7t-51.5 7z" />
<glyph unicode="(" horiz-adv-x="688" d="M100 485q0 -242 80.5 -476.5t210.5 -381.5t266 -147q-6 8 -17 23t-42.5 66.5t-60 108.5t-63.5 148t-60.5 186t-42.5 220t-17 253q0 122 16.5 238t42.5 202.5t57 163t62.5 128.5t57.5 90t42 55l17 18q-157 0 -284.5 -129t-196 -333t-68.5 -433z" />
<glyph unicode=")" horiz-adv-x="694" d="M55 -520q6 8 17 23t42.5 66.5t60 108.5t63.5 148t60.5 186t42.5 220t17 253q0 122 -16.5 238t-42.5 202.5t-57 163t-62.5 128.5t-57.5 90t-42 55l-17 18q157 0 284.5 -129t196 -333t68.5 -433q0 -242 -80.5 -476.5t-210.5 -381.5t-266 -147z" />
<glyph unicode="*" horiz-adv-x="884" d="M12 1096q31 172 283 172h4q-44 91 -89 159.5t-65 75.5q41 13 68 13q124 0 219 -168l4 6q125 197 125 250q0 1 -1 3t-1 3q72 -58 72 -148q0 -83 -60 -184l-12 -18h43h98t73.5 1.5t62.5 5t30 9.5q-14 -89 -82 -130.5t-163 -41.5h-58q106 -186 132 -221q20 -25 32 -31 q-37 -12 -72 -12q-61 0 -112.5 38.5t-87.5 102.5l-29 51l-2 2q-127 -221 -127 -258q-72 61 -72 150q0 79 43 151l21 35q-37 2 -103 2q-151 0 -174 -18z" />
<glyph unicode="+" horiz-adv-x="964" d="M98 438v164q52 -8 299 -8v51q0 166 -7 205q-6 31 -17 47q54 16 88 16q30 0 49.5 -8.5t28.5 -27.5t11.5 -38.5t2.5 -50.5v-45q0 -8 -1 -51.5t-1 -97.5h67h40h39.5h34.5t34 1t29 2.5t28 3.5t23 5t22 7.5t17 9.5q-6 -38 -19 -67.5t-30 -48.5t-38.5 -32.5t-46 -19.5t-51 -10 t-54.5 -3.5t-56 0.5h-29h-12q-2 -96 -2 -266q0 -26 6 -51h-164q8 24 8 317q-41 0 -113.5 1t-93.5 1q-54 0 -92 -6z" />
<glyph unicode="," horiz-adv-x="456" d="M55 -225q129 124 129 239q0 28 -5.5 46.5t-16.5 26t-17 10t-16 3.5q-8 49 32.5 101.5t102.5 52.5q61 0 103.5 -41.5t42.5 -116.5q0 -80 -78 -186.5t-226 -200.5z" />
<glyph unicode="-" horiz-adv-x="632" d="M39 422v162q0 -9 262 -9q132 0 198.5 3.5t86.5 17.5q-2 -29 -9.5 -52t-16.5 -40.5t-25 -30.5t-30 -22t-37.5 -15t-40.5 -9t-46 -4.5t-47 -2t-51 -0.5q-27 0 -109.5 2t-95.5 2q-31 0 -39 -2z" />
<glyph unicode="." horiz-adv-x="528" d="M127 111q0 60 42 101.5t101 41.5q56 0 97 -42t41 -101q0 -57 -41 -97.5t-97 -40.5q-59 0 -101 40.5t-42 97.5z" />
<glyph unicode="/" horiz-adv-x="618" d="M-59 -500q178 704 284.5 1213.5t106.5 621.5v13q13 21 49 42t86 21q88 0 88 -74q0 -38 -23 -123q-60 -221 -204 -857t-187 -857h-200z" />
<glyph unicode="0" horiz-adv-x="1226" d="M92 578q0 -125 25.5 -227.5t69 -172t104 -117t129 -69t145.5 -21.5q132 0 241 52t180.5 141t110 207.5t38.5 253.5q0 149 -37 265t-102.5 188.5t-152 109.5t-188.5 37q-170 0 -299 -84.5t-196.5 -230.5t-67.5 -332zM352 662q2 170 67.5 292.5t160.5 122.5 q125 0 207.5 -148.5t82.5 -381.5q0 -191 -72 -318.5t-169 -130.5q-79 1 -141.5 74.5t-97.5 201t-38 288.5z" />
<glyph unicode="1" horiz-adv-x="710" d="M31 1055l395 174h43l61 -103q-6 -116 -6 -151q0 -347 4 -811q0 -78 19 -164h-277l2 80l9 784q3 80 -21 117q-113 -35 -182 -57z" />
<glyph unicode="2" horiz-adv-x="950" d="M72 0v96l32 33q140 140 189 196q274 309 274 578q0 39 -7 72.5t-23 63t-45 46.5t-70 17q-63 0 -103 -37t-30 -96q-36 -41 -90 -41q-46 0 -79.5 27t-33.5 77q0 88 106.5 140.5t253.5 52.5q107 0 188 -26t126 -70.5t66.5 -96t21.5 -108.5q0 -71 -30 -151.5t-77.5 -151.5 t-105.5 -140.5t-115.5 -124.5t-105 -97.5t-77.5 -65.5l-30 -23h377q88 0 130 8t65 37q10 -38 10 -74q0 -136 -182 -141h-635z" />
<glyph unicode="3" horiz-adv-x="958" d="M31 -57q62 -9 96 -9q72 0 145 21t139.5 62t111.5 111t52 159q-1 58 -13 104t-34 76.5t-46 52t-57.5 34.5t-59 20t-58.5 12l29 61q92 42 155.5 119t63.5 160q0 79 -40 127.5t-107 48.5q-42 0 -81.5 -30.5t-39.5 -80.5q0 -14 2 -22q-38 -41 -92 -41q-45 0 -78 28.5 t-33 79.5q0 76 101 132.5t241 56.5q103 0 182 -24.5t123 -64.5t66 -85.5t22 -94.5q0 -173 -243 -301q48 -9 85.5 -21.5t77 -37.5t65.5 -59t43 -88t17 -123q0 -102 -41.5 -187t-109.5 -141t-157 -95t-181 -56t-184 -17q-42 0 -74 11.5t-48 28t-26 33.5t-12 29z" />
<glyph unicode="4" horiz-adv-x="1071" d="M51 225q32 97 103.5 246t156.5 291q99 166 198.5 297t158.5 170h163l-4 -96q-6 -123 -6 -158v-613q58 0 89.5 2t67 12.5t52.5 31.5q10 -38 10 -76q0 -55 -44 -97t-134 -42q-6 0 -19 1t-20 1v-63.5v-69.5t1 -58.5t3.5 -65t6.5 -52t10 -54.5h-269l7 361h-500zM279 362h296 l13 469q1 24 5.5 62.5t8.5 64.5l4 27q-90 -120 -184 -303q-80 -154 -143 -320z" />
<glyph unicode="5" horiz-adv-x="960" d="M82 -57q62 -9 96 -9q72 0 138 22t121.5 65.5t90 117.5t37.5 168q0 88 -22 154t-58.5 102t-74 54t-78.5 24q-86 14 -180 -4l-23 37l37 500l33 24h403q115 0 160.5 7t71.5 38q7 -32 9.5 -56.5t-4.5 -56t-26.5 -52t-61.5 -35t-104 -15.5h-344l-8 -258q71 5 142.5 -2.5 t147.5 -36t134 -75t95.5 -126.5t37.5 -184q0 -102 -36 -188.5t-96.5 -146t-140.5 -101t-167.5 -61t-178.5 -19.5q-41 0 -71.5 11.5t-45 28t-23 33.5t-9.5 29z" />
<glyph unicode="6" horiz-adv-x="1167" d="M131 580q0 -90 15.5 -174.5t50.5 -164t86.5 -138.5t129 -94.5t171.5 -35.5q148 0 261 73t169.5 188.5t56.5 252.5q0 98 -30.5 173t-83.5 119.5t-119 66.5t-144 22q-129 0 -272 -82q22 228 112 345.5t205 117.5q74 0 160 -36t131 -103q32 83 -9.5 148.5t-128.5 98 t-194 32.5q-77 0 -153 -25t-152 -86t-133 -150.5t-93 -231t-36 -316.5zM416 643v55q22 12 78 26.5t98 14.5q97 0 151 -86.5t54 -244.5q0 -147 -43 -228.5t-121 -81.5q-59 0 -103.5 49.5t-68 132t-34.5 173.5t-11 190z" />
<glyph unicode="7" horiz-adv-x="933" d="M61 1169q0 -30 7.5 -58.5t28.5 -59t54 -52.5t89.5 -36.5t130.5 -14.5q201 0 293 56l-400 -910q-52 -118 -84.5 -162t-62.5 -57q59 -45 129 -45q108 0 164 127l524 1208l-33 33h-612h-74q-115 0 -145 37q-9 -36 -9 -66z" />
<glyph unicode="8" horiz-adv-x="1120" d="M123 305q0 122 87 228.5t196 154.5q-104 73 -171 167.5t-67 182.5q0 157 115.5 254t312.5 97q162 0 261 -74.5t99 -194.5q0 -183 -247 -334q75 -55 122.5 -94t100.5 -93.5t79.5 -109t26.5 -110.5q0 -177 -142 -291.5t-353 -114.5q-183 0 -301.5 93t-118.5 239zM338 369 q0 -52 11 -96.5t35.5 -84t69.5 -62t107 -22.5q74 0 138.5 57t64.5 146q0 22 -8 45t-18 41.5t-32.5 43.5t-37 39.5t-47 41.5t-47 38t-52.5 39.5t-49 37.5q-64 -35 -99.5 -104.5t-35.5 -159.5zM426 1106q0 -47 32 -97t72 -87t103 -84q42 29 73 90.5t31 148.5q0 89 -44 139 t-120 50q-66 0 -106.5 -42.5t-40.5 -117.5z" />
<glyph unicode="9" horiz-adv-x="1183" d="M113 713q0 -98 30 -173t83 -119.5t119 -66.5t144 -22q130 0 273 82q-22 -227 -112.5 -345t-205.5 -118q-74 0 -159.5 36t-130.5 103q-25 -65 -6.5 -116.5t68 -87.5t120 -55t149.5 -19q77 0 153 25t152 86t133.5 150.5t93.5 231t36 316.5q0 90 -15.5 174.5t-50.5 163.5 t-86.5 138t-129 94.5t-171.5 35.5q-148 0 -261 -73t-169.5 -188.5t-56.5 -252.5zM387 793q0 146 43 227.5t121 81.5q59 0 103.5 -49.5t68 -132t34.5 -173.5t11 -190v-55q-22 -12 -78 -26.5t-98 -14.5q-97 0 -151 87t-54 245z" />
<glyph unicode=":" horiz-adv-x="528" d="M127 111q0 60 42 101.5t101 41.5q56 0 97 -42t41 -101q0 -57 -41 -97.5t-97 -40.5q-59 0 -101 40.5t-42 97.5zM127 662q0 60 42 101.5t101 41.5q56 0 97 -42t41 -101q0 -57 -41 -97.5t-97 -40.5q-59 0 -101 40.5t-42 97.5z" />
<glyph unicode=";" horiz-adv-x="528" d="M55 -225q129 124 129 239q0 28 -5.5 46.5t-16.5 26t-17 10t-16 3.5q-8 49 32.5 101.5t102.5 52.5q61 0 103.5 -41.5t42.5 -116.5q0 -80 -78 -186.5t-226 -200.5zM127 662q0 60 42 101.5t101 41.5q56 0 97 -42t41 -101q0 -57 -41 -97.5t-97 -40.5q-59 0 -101 40.5 t-42 97.5z" />
<glyph unicode="&#x3c;" horiz-adv-x="755" d="M39 506q30 -20 57 -51q18 -22 118 -142t153 -180q51 -57 153.5 -82t190.5 -6q-28 12 -64 44t-43 42l-231 313q-11 15 -29.5 31t-31.5 25l-13 8q54 32 70 55l227 303q78 87 111 97q-89 20 -193 -5t-156 -86q-53 -62 -266 -319q-8 -9 -21.5 -20.5t-22.5 -18.5z" />
<glyph unicode="=" horiz-adv-x="983" d="M92 266v166q0 -8 529 -8q218 0 258 7q19 4 26 9q-30 -174 -303 -174q-27 0 -243.5 1t-229.5 1q-29 0 -37 -2zM92 588v166q0 -9 529 -9q224 0 265 10q13 3 19 7q-30 -174 -303 -174q-27 0 -243.5 1t-229.5 1q-29 0 -37 -2z" />
<glyph unicode="&#x3e;" horiz-adv-x="755" d="M39 45q28 12 63.5 44t42.5 42l232 313q11 15 29.5 31t31.5 25l13 8q-54 32 -70 55l-227 303q-78 87 -111 97q89 20 192.5 -5t155.5 -86q53 -62 266 -319q8 -9 21.5 -20.5t23.5 -18.5l9 -8q-31 -20 -58 -51q-24 -29 -121 -146t-149 -176q-51 -57 -153.5 -82t-190.5 -6z " />
<glyph unicode="?" horiz-adv-x="901" d="M20 1317q0 114 110.5 182t272.5 68q100 0 181 -29t132 -79t78 -113t27 -134q0 -73 -26 -146.5t-68 -133.5t-92.5 -117.5t-100.5 -105.5t-92 -89.5t-68 -78.5t-26 -64q0 -15 3.5 -30t6.5 -22t10.5 -20.5t8.5 -15.5l-53 -35q-151 67 -154 201q-1 59 21 115.5t57.5 102.5 t78.5 91.5t86 90.5t79 90.5t58.5 101t22.5 113.5q0 42 -15 81t-55.5 69t-99.5 30q-51 0 -99 -36.5t-48 -100.5q0 -26 8 -58q-42 -53 -102 -53t-101 35.5t-41 89.5zM190 111q0 60 42.5 101.5t101.5 41.5q56 0 96.5 -41.5t40.5 -101.5q0 -57 -40.5 -97.5t-96.5 -40.5 q-59 0 -101.5 40.5t-42.5 97.5z" />
<glyph unicode="@" horiz-adv-x="1847" d="M90 406q0 193 71.5 369t192.5 304t287.5 203.5t349.5 75.5q214 0 385.5 -94t268 -260.5t96.5 -372.5q0 -178 -64.5 -334.5t-184 -254t-267.5 -97.5q-79 0 -141.5 53t-63.5 133q-46 -70 -112 -112t-138 -42q-91 0 -168 57.5t-120.5 153t-43.5 203.5q0 190 83.5 341 t224.5 233t311 82q92 0 223 -41q-38 -600 -29 -838q2 -56 37 -70.5t78 6t72 58.5q56 73 94.5 183.5t38.5 232.5q0 129 -51 246.5t-136 202t-201 135t-241 50.5q-185 0 -336.5 -98t-238 -271.5t-86.5 -387.5q0 -280 149 -473.5t381 -235.5q95 -12 139 18q-11 -50 -33 -83.5 t-53 -49.5t-61 -22t-68 -6q-107 0 -208 46.5t-179 126.5t-137 182t-90 218t-31 230zM686 426q0 -111 56 -196t126 -85q61 0 127 80l27 709q-37 -4 -75 -17.5t-87 -49.5t-86 -89t-62.5 -144.5t-25.5 -207.5z" />
<glyph unicode="A" horiz-adv-x="1263" d="M-10 0l461 1182q27 101 114.5 155.5t218.5 63.5q17 -96 47 -180l365 -1045q40 -115 78 -176h-328q0 45 -20 100l-121 344h-469l-146 -411l-6 -33h-194zM383 580h373l-185 526z" />
<glyph unicode="B" horiz-adv-x="1169" d="M154 1315l16 43l395 10h23q94 0 170 -22q86 -25 136.5 -69t77.5 -97.5t27 -112.5q0 -166 -202 -291q290 -87 290 -354q0 -193 -142.5 -307.5t-381.5 -114.5h-321h-43l6 147v940q0 82 -9 133t-17.5 65t-24.5 30zM487 811h70q81 0 137 -12q29 33 48.5 94.5t19.5 114.5 q0 94 -56 162q-54 65 -141 65h-8l-59 -2v-47q0 -57 -5.5 -188.5t-5.5 -186.5zM489 696q-5 -146 -5 -270q0 -176 10 -307h88q124 0 189 68.5t65 166.5q0 160 -86.5 247t-219.5 93z" />
<glyph unicode="C" horiz-adv-x="1277" d="M86 649q0 214 86 381t245 260.5t365 93.5q145 0 267 -52t159 -128q0 -39 -44 -110.5t-109 -100.5l-39 31q0 21 -18.5 56.5t-50.5 72t-83 62.5t-106 26q-92 0 -163.5 -41.5t-114.5 -113.5t-65 -160.5t-22 -188.5q0 -124 26 -230.5t76.5 -189.5t131.5 -130.5t184 -47.5 q102 0 220.5 59.5t170.5 159.5q14 -40 14 -79q0 -63 -38 -119q-60 -91 -184 -140q-119 -47 -261 -47h-12q-202 0 -346.5 86.5t-216.5 237.5t-72 352z" />
<glyph unicode="D" horiz-adv-x="1417" d="M154 1317l16 43l496 10h15q95 0 185 -23q96 -25 181 -78t148 -129t99.5 -184t36.5 -235q0 -152 -47 -284.5t-131.5 -229t-208 -152t-270.5 -55.5h-473q4 70 4 106v967q0 55 -2 90t-14 81t-35 73zM489 514q0 -187 7 -381h202q61 0 119 32t105.5 91t76.5 152.5t29 205.5 q0 172 -60.5 314.5t-165.5 222.5q-100 76 -219 76h-12l-71 -2q0 -28 -5.5 -299t-5.5 -412z" />
<glyph unicode="E" horiz-adv-x="1052" d="M154 1317l16 43h342l377 6q35 -52 41 -120l2 -30q0 -51 -17 -98h-47q-9 43 -67.5 74.5t-122.5 34.5l-180 8q-13 -236 -13 -469h256q30 0 47 1t42 10t42 26q7 -47 7 -70q0 -127 -187 -127q-38 0 -108.5 2t-100.5 2v-79v-129q2 -113 4 -178l2 -66h359q69 0 102 43 q6 -43 6 -68q0 -76 -55 -104.5t-176 -28.5h-524l2 150v937q-2 84 -7.5 126t-13 58.5t-28.5 45.5z" />
<glyph unicode="F" horiz-adv-x="995" d="M154 1317l16 43h342l377 6q35 -52 41 -120l2 -30q0 -51 -17 -98h-47q-9 43 -67.5 74.5t-122.5 34.5l-180 8q-13 -236 -13 -469h256q30 0 47 1t42 10t42 26q7 -47 7 -70q0 -127 -187 -127q-38 0 -108.5 2t-100.5 2v-79v-129q2 -113 4 -178l2 -66q3 -109 19 -158h-309 l4 150v937q-2 84 -7.5 126t-13 58.5t-28.5 45.5z" />
<glyph unicode="G" horiz-adv-x="1368" d="M86 649q0 214 86 381t245 260.5t365 93.5q145 0 267 -52t159 -128q0 -39 -44 -110.5t-109 -100.5l-39 31q0 21 -18.5 56.5t-50.5 72t-83 62.5t-106 26q-92 0 -163.5 -41.5t-114.5 -113.5t-65 -160.5t-22 -188.5q0 -124 26 -233t76 -195t131.5 -136t184.5 -50q25 0 66 5.5 t69 11.5l29 5v156q0 73 -9 118.5t-17.5 58.5t-28.5 38l16 45q80 29 174 29q95 0 150 -27q-12 -208 -15 -330l-2 -188q-41 0 -96 -12q-13 -2 -63 -12.5t-84.5 -17t-86 -14.5t-102 -12t-96.5 -4q-298 0 -463.5 185t-165.5 491z" />
<glyph unicode="H" horiz-adv-x="1589" d="M154 1317l16 43q88 29 182 29q103 0 158 -27q-17 -372 -21 -606h609q2 150 2 344q0 72 -10 118.5t-18.5 60.5t-27.5 38l17 43q86 29 180 29q103 0 160 -27q-21 -481 -21 -811q0 -500 25 -551h-301q-8 47 -8 129q0 54 1 218t1 269h-609v-77q0 -488 25 -539h-309 q4 136 4 1100q0 25 -1 46.5t-3.5 39.5t-3.5 31t-6 26t-6.5 19.5t-8.5 17t-8 13t-9 13t-9 11.5z" />
<glyph unicode="I" horiz-adv-x="698" d="M154 1317l16 43q88 29 182 29q103 0 158 -27q-21 -374 -21 -811q0 -500 25 -551h-309q4 136 4 1100q0 25 -1 46.5t-3.5 39.5t-3.5 31t-6 26t-6.5 19.5t-8.5 17t-8 13t-9 13t-9 11.5z" />
<glyph unicode="J" horiz-adv-x="677" d="M-252 -242q0 44 36.5 74.5t90.5 30.5q31 0 66 -15q5 -33 32 -57t60 -24q94 0 131 89t37 281q0 881 -4 963q0 29 -1.5 53.5t-3 41t-6.5 33.5t-6.5 24.5t-9 21t-9 15.5t-11.5 15l-9 13l17 43q88 29 182 29q103 0 158 -27q-21 -374 -21 -811q0 -26 1 -99.5t1 -115.5v-205 q0 -101 -31.5 -187t-84.5 -146t-121.5 -102.5t-142.5 -62.5t-148 -20q-98 0 -150.5 41.5t-52.5 103.5z" />
<glyph unicode="K" horiz-adv-x="1302" d="M154 1317l16 43q88 29 182 29q103 0 158 -27q-15 -270 -21 -629q53 59 205 225.5t211 233.5q37 42 37 88q0 28 -10 43l14 37q53 29 178 29q98 0 144 -27q-43 -103 -142 -199q-145 -138 -405 -379q133 -186 355 -478.5t247 -305.5h-373q-79 129 -224.5 343t-236.5 327 v-119q0 -500 25 -551h-309q4 136 4 1100q0 25 -1 46.5t-3.5 39.5t-3.5 31t-6 26t-6.5 19.5t-8.5 17t-8 13t-9 13t-9 11.5z" />
<glyph unicode="L" horiz-adv-x="997" d="M154 1317l16 43q88 29 182 29q103 0 158 -27q-21 -374 -21 -811q0 -284 7 -418h204q75 0 146 32.5t80 76.5h49q17 -40 17 -89q0 -19 -3 -39q-9 -72 -43 -114h-741q4 136 4 1100q0 25 -1 46.5t-3.5 39.5t-3.5 31t-6 26t-6.5 19.5t-8.5 17t-8 13t-9 13t-9 11.5z" />
<glyph unicode="M" horiz-adv-x="1890" d="M178 1317l19 43q82 29 182 29q123 0 170 -35q34 -135 176 -501t242 -591q50 130 118 331t91 259q129 334 165 438q9 22 31.5 37.5t47.5 24t66 14t68.5 7.5t75 4t66.5 3q-11 -205 -11 -487q0 -329 15 -762q5 -90 16 -131h-309l2 133q0 36 1 103t1 98q0 470 -4 563l-6 117 l-33 -115l-311 -762q-9 -28 -26.5 -93.5t-26.5 -94.5l-113 26q-80 18 -123.5 66.5t-56.5 95.5q-205 495 -342 871q4 -98 4 -205q-5 -483 -11 -686q0 -71 11 -117h-185l5 43q16 295 49 1200q-28 50 -64 74z" />
<glyph unicode="N" horiz-adv-x="1593" d="M162 1317l16 43q23 15 85 25q39 6 72 6q20 0 38 -2q28 -34 110.5 -126.5t191 -213t202.5 -224.5t185 -204t99 -109q19 -21 40 -61t33 -69l11 -30q-16 115 -16 158l3 144q1 152 1 444q0 139 -68 219l19 43q15 10 60 19.5t77 9.5q60 0 92 -25q-24 -544 -24 -973 q0 -231 10 -391h-178l-762 840q-70 100 -84 137q6 -35 6 -100q0 -50 -2 -143t-2 -144q0 -429 20 -590h-180v33q2 266 2 731v342q0 80 -12 123.5t-45 87.5z" />
<glyph unicode="O" horiz-adv-x="1431" d="M82 657q0 -163 48.5 -296t129 -216t179 -127.5t204.5 -44.5q158 0 290 56t222 154.5t141 232.5t54 289q0 164 -46.5 295t-127 214t-186 126.5t-226.5 43.5q-195 0 -350.5 -91.5t-243.5 -257.5t-88 -378zM385 723q0 141 39.5 258.5t110.5 186.5t157 69q93 0 174 -80.5 t129.5 -220t48.5 -301.5q0 -217 -87 -367.5t-216 -150.5q-98 0 -180.5 86.5t-129 225.5t-46.5 294z" />
<glyph unicode="P" horiz-adv-x="1165" d="M154 1317l16 43l438 10h11q63 0 123 -11q65 -12 127.5 -43.5t109.5 -79t75.5 -122t28.5 -168.5q0 -124 -72.5 -225t-191 -156t-256.5 -55q-24 0 -78 4q0 -407 21 -514h-303l2 80v1v1v1v2v1v1v1v1v1v1v2v1v1v1v1v1v2v1v1v1v1v1v2v1v1v1v1v2v1v1v1v1v1v2v1v1v1v1v2v1v1v1v1 v2v1v1v1v2v1v1v1v1v2v1v1v1v2v1v1v1v1v2v1v1v1v2v1v1v1v2v1v1v1v2v1v1v1v2v1v1v1v2v1v1v2v1v1v1v2v1v1v1v2v1v1v2v1v1v1v2v1v1v2v1v1v2v1v1v1v2v1v1v2v1v1v2v1v1v2v1v1v2v1v1v2v1v1v1v2v1v1v2v1v2v1v1v2v1v1v2v1v1v2v1v1v2v1v1v2v1v1v2v1v2v1v1v2v1v1v2v1v2v1v1v2v1v1v2v1v2 v1v1v2v1v2v1v1v2v1v2v1v1v2v1v2v1v1v2v1v2v1v2v1v1v2v1v2v1v1v2v1v2v1v2v1v1v2v1v2v1v2v1v2v1v1v2v1v2v1v2v1v2v1v2v1v1v2v1v2v1v2v1v2v1v2v1v2v1v2v1v1v2v1v2v1v2v1v2v1v2v1v2v1v2v1v2v1v2v1v2v1v2v1v2v1v2v1v2v1v2v1v2v1v2v2v1v2v1v2v1v2v1v2v1v2v1v2v1v2v1v2v2v1v2v1v2v1 v2v1v2v1v2v2v1v2v1v2v1v2v2v1v2v1v2v1v2v1v2v2v1v2v1v2v2v1v2v1v2v1v2v2v1v2v1v2v2v1v2v1v2v2v1v2v1v2v2v1v2v1v2v2v1v2v1v2v2v1v2v2v1v2v1v2v2v1v2v2v1v2v1v2v2v1v2v2v1v2v2v1v2v2v1v2v1v2v2v1v2v2v1v2v2v1v2v2v1v2v2v1v2v2v1v2v2v1v2v2v1v2v2v1v2v2v2v1v2v2v1v2v2v1v2v2v1 v2v2v2v1v2v2v1v2v2v1v2v2v2v1v2v2v1v2v2v2v1v2v2v2v1v2v2v1v2v2v2v1v2v2v2v1v2v2v2v1v2v2v2v1v2v2v2v1v2v2v2v1v2v2v2v1v2v2v2v1v2v2v2v2v1v2v2v2v1v2v2v2v2v1v2v2v2v2v1v2v2v2v2v1v2v2v2v2v1v2v2v2v2v1v2v2v2v2v2v1v2v2v2v2v1v2v2v2v2v2v2v1v2v2v2v2v2v1v2v2v2v2v2v2v1v2v2 v2v2v2v2v1v2v2v2v2v2v2v2v1v2v2v2v2v2v2v2v2v1v2v2v2v2v2v2v2v2v2v2v1v2v2v2v2v2v2v2v2v2v2v2v2v2v2v1v2v2v2v2v2v2v2v2v2v2v2v2v2v2v2v2v2v2v2v2v2v2v2v2v2v2v2v2v2v2v2v2v3v2v2v2v2v2v2v10q0 160 -51 223zM485 637q25 -6 76 -6q126 0 194 78t68 190q0 91 -29.5 167 t-96.5 125q-61 44 -145 44h-17l-41 -2q-3 -40 -7 -346z" />
<glyph unicode="Q" horiz-adv-x="1431" d="M82 657q0 -160 47 -291.5t125 -214.5t174.5 -129t200.5 -49q14 -107 77.5 -191t152 -126.5t183.5 -42.5q124 0 192.5 40t115.5 132q-43 -18 -136 -18q-127 0 -241 58t-185 163q254 45 405 242t157 475q0 164 -46.5 295t-127 214t-186 126.5t-226.5 43.5 q-195 0 -350.5 -91.5t-243.5 -257.5t-88 -378zM385 723q0 141 39.5 258.5t110.5 186.5t157 69q93 0 174 -80.5t129.5 -220t48.5 -301.5q0 -217 -87 -367.5t-216 -150.5q-98 0 -180.5 86.5t-129 225.5t-46.5 294z" />
<glyph unicode="R" horiz-adv-x="1259" d="M154 1315l16 43l438 10h11q63 0 123 -11q65 -12 128 -43t109.5 -78t75 -121.5t28.5 -168.5q0 -131 -78.5 -234t-207.5 -157q28 -22 53 -51q26 -32 75 -93.5t93.5 -115.5t89.5 -107q36 -42 79 -89t68 -73l25 -26h-360q-24 54 -64 115.5t-93 127t-94.5 113t-99.5 111.5 q-12 14 -41 43q-7 1 -21.5 2t-21.5 2q0 -407 21 -514h-303l2 80v1012q0 160 -51 223zM485 637q25 -6 76 -6q126 0 194 78t68 190q0 91 -29 167q-30 76 -97 124q-61 44 -144 43h-18l-41 -2q-3 -41 -7 -344z" />
<glyph unicode="S" horiz-adv-x="1013" d="M92 1006q0 71 27 138.5t77 122.5t131 88.5t181 33.5q65 0 122.5 -10t107 -31t72.5 -32.5t60 -33.5q9 -27 9 -72q0 -108 -62 -170l-47 11q-21 66 -73.5 114t-107 68t-104.5 20q-31 0 -60.5 -7.5t-57.5 -23.5t-45 -46.5t-17 -71.5q0 -52 35 -99t91.5 -86.5t124 -80 t135.5 -86.5t124.5 -98t91.5 -124t35 -155q0 -168 -135.5 -285t-347.5 -117q-150 0 -254.5 68.5t-104.5 159.5q0 50 33 94q19 -66 122.5 -112t195.5 -46q42 0 80.5 8t75 26.5t58 54t21.5 85.5q0 44 -33 87t-85 80.5t-115.5 77.5t-127 86t-115.5 97.5t-85 120.5t-33 146z" />
<glyph unicode="T" horiz-adv-x="1146" d="M2 1206q2 -38 14 -88h47q6 46 56.5 77.5t122.5 31.5h180q10 -48 10 -127q0 -964 -4 -1100h309q-24 49 -24 551q0 406 12 676h180q72 0 122 -31t56 -78h47q12 52 15 88q1 7 1 15q0 31 -10 68q-12 46 -44 85l-312 -14h-413l-312 14q-32 -38 -44 -84q-10 -38 -10 -70 q1 -8 1 -14z" />
<glyph unicode="U" horiz-adv-x="1480" d="M147 1317l17 43q88 29 182 29q103 0 158 -27q-21 -410 -21 -875q0 -92 27 -162.5t73.5 -111.5t102.5 -61.5t119 -20.5q82 0 156.5 32.5t124.5 97t51 145.5l6 692v9q0 77 -17 121q-18 48 -51 89l19 43q15 10 60 19.5t77 9.5q60 0 92 -25q-25 -567 -25 -907 q0 -120 -44 -213.5t-122.5 -152t-182.5 -88.5t-230 -30q-100 0 -191 30t-165 87.5t-118 153.5t-44 217q0 21 1 300.5t1 338.5q0 29 -1.5 53.5t-3 41t-6.5 33.5t-6.5 24.5t-9 21t-9 15.5t-11.5 15z" />
<glyph unicode="V" horiz-adv-x="1306" d="M10 1317q11 -4 28.5 -22.5t55 -90t72.5 -180.5q57 -163 173.5 -487t143.5 -400q13 -48 57 -96.5t124 -65.5l129 -26l55 188l393 944q22 54 42.5 139t23.5 140q-59 29 -125 29q-60 0 -133 -29l-13 -33q45 -48 45 -119q0 -40 -26 -129q-34 -107 -154.5 -407t-155.5 -447 q-63 157 -194.5 543t-169.5 575q-51 46 -168 46q-99 0 -184 -29z" />
<glyph unicode="W" horiz-adv-x="1980" d="M10 1317q11 -4 28.5 -22.5t55 -90t72.5 -180.5q45 -129 144.5 -433.5t152.5 -453.5q13 -48 56.5 -96.5t123.5 -65.5l129 -26l55 188l189 545q106 -332 182 -545q13 -48 56.5 -96.5t123.5 -65.5l129 -26l56 188l346 944q22 53 42 140.5t23 142.5q-10 3 -27.5 9t-27.5 8.5 t-25 5t-30 2.5q-68 0 -142 -29l-12 -33q45 -48 45 -119q0 -40 -26 -129q-27 -85 -89.5 -268.5t-107 -325.5t-72.5 -260q-52 129 -178.5 527t-165.5 591q-51 46 -168 46q-99 0 -184 -29l-19 -43q11 -4 28.5 -22.5t55 -90t72.5 -180.5q6 -17 17.5 -51.5l17.5 -52.5 q-168 -514 -211 -695q-52 129 -178.5 527t-165.5 591q-51 46 -168 46q-99 0 -184 -29z" />
<glyph unicode="X" horiz-adv-x="1130" d="M12 0l72 100l371 541l-211 379q-23 42 -52 95t-40.5 73.5t-28 47.5t-27 38t-24.5 22.5t-33 20.5l18 43q82 29 189 29q114 0 160 -46q11 -25 32.5 -74.5t35.5 -77.5t58 -110.5t117 -212.5q3 14 19 41l114 172q68 101 68 160q0 48 -27 78l19 41q60 29 133 29q71 0 131 -29 q-9 -56 -53.5 -140.5t-91.5 -152.5l-242 -350l311 -570q17 -31 45 -68t47 -58l19 -21h-344l-262 494q-17 -33 -37 -64l-213 -319q-14 -25 -25 -53t-16 -43l-4 -15h-228z" />
<glyph unicode="Y" horiz-adv-x="1103" d="M0 1317l18 43q68 33 177 33q131 0 170 -50q17 -46 44.5 -108t63.5 -134.5t61.5 -122t62.5 -120t42 -80.5q10 41 33 80l153 277q27 52 27 92q0 41 -29 90l19 43q61 24 131 24q60 0 117 -36q0 -36 -37.5 -129t-73.5 -152l-254 -401q0 -36 -1 -144t-1 -170q0 -245 16 -352 h-295v33q0 84 1 200.5t1 149.5q0 198 -2 233q-15 15 -43 64l-196 344q-27 49 -57.5 106t-43 80t-30.5 49t-34 37.5t-40 20.5z" />
<glyph unicode="Z" horiz-adv-x="1181" d="M10 53q44 50 56 68q113 176 324.5 521t316.5 511l59 66h-459q-72 0 -121 -31t-55 -78h-49q-14 42 -16 86v14q0 38 12 78q14 48 43 86l311 -14h715l8 -47q-34 -41 -57 -78l-637 -1014l-58 -67h508q72 0 121 30.5t55 77.5h50q13 -42 15 -86q0 -7 1 -14q1 -38 -11 -78 q-14 -48 -44 -84h-1084z" />
<glyph unicode="[" horiz-adv-x="507" d="M-6 -141v1624h422v-119h-191v-1387h191v-118h-422z" />
<glyph unicode="\" horiz-adv-x="657" d="M14 1346q0 -15 5 -35.5t14 -49t12 -38.5q60 -221 205 -860.5t188 -860.5h201q-178 706 -285.5 1217.5t-107.5 623.5q-12 21 -55 45.5t-80 24.5q-97 0 -97 -67z" />
<glyph unicode="]" horiz-adv-x="509" d="M39 -23v-118h422v1624h-422v-119h190v-1387h-190z" />
<glyph unicode="^" horiz-adv-x="1277" d="M102 645q103 180 214 384t171 317l60 114h180q418 -766 447 -815h-222q-98 180 -176.5 328t-107.5 206l-29 58q-19 -33 -125.5 -233t-194.5 -359h-217z" />
<glyph unicode="_" horiz-adv-x="966" d="M0 -143h1042l-79 -144h-963v144z" />
<glyph unicode="`" horiz-adv-x="692" d="M78 1503l90 -155q118 -191 311 -191q24 0 53 9.5t46.5 20.5t17.5 15q-36 12 -65 31t-51.5 46.5t-35 47t-30.5 53.5q-17 32 -29 49t-31.5 37t-46 28.5t-61.5 8.5h-168z" />
<glyph unicode="a" d="M55 244q0 145 125.5 231t306.5 86q63 0 125 -16q4 86 4 127q0 61 -5.5 105.5t-20.5 84.5t-45.5 61t-75.5 21q-67 0 -103 -47q-26 -34 -26 -79q0 -17 4 -36q-52 -43 -115 -43q-49 0 -83.5 30t-34.5 79q0 95 109 156t249 61q189 0 297 -82t108 -238q0 -30 -2 -122t-2 -181 q0 -244 25 -295q34 -67 143 -67v-45q-38 -24 -106 -43t-123 -19q-66 0 -115.5 50t-56.5 100q-36 -71 -114.5 -110.5t-155.5 -39.5q-152 0 -232 80.5t-80 190.5zM299 285q0 -68 42 -110t97 -42q88 0 178 60q-4 92 -4 278q-28 -1 -55 -4t-65.5 -10t-70 -20.5t-60.5 -33 t-45.5 -50t-16.5 -68.5z" />
<glyph unicode="b" horiz-adv-x="1157" d="M76 1458v37q11 7 31 17t74 27t100 17q95 0 133.5 -48t38.5 -146q-10 -232 -14.5 -299.5t-14.5 -93.5q45 40 111.5 68t128.5 28q80 0 153.5 -33t133 -95.5t95 -165t35.5 -230.5q0 -84 -20.5 -165t-63.5 -154t-103.5 -128.5t-146.5 -88t-186 -32.5q-126 0 -223 37.5 t-127 102.5q-37 73 -37 184q0 366 5 810l1 118q0 93 -30 157t-74 76zM428 481q0 -69 2 -118.5t8 -97t17 -78.5t28.5 -55t42.5 -35t58 -11q65 0 112 38.5t71 101t35 126t11 127.5q0 194 -71.5 312t-186.5 118q-70 0 -123 -37q0 -81 -2 -211t-2 -180z" />
<glyph unicode="c" horiz-adv-x="985" d="M76 475q0 160 66 295.5t183.5 215t260.5 79.5q145 0 244.5 -53t99.5 -142q0 -55 -39 -91t-90 -36q-55 0 -94 45q-2 57 -39 96.5t-105 39.5q-69 0 -123 -56.5t-82 -143t-28 -183.5q0 -98 31.5 -184.5t96.5 -144.5t150 -58q212 0 334 184q12 -37 12 -72q0 -82 -58.5 -149.5 t-157.5 -105.5t-216 -38q-94 0 -173.5 30t-141 90t-96.5 157.5t-35 224.5z" />
<glyph unicode="d" horiz-adv-x="1167" d="M76 465q0 84 20.5 168t63.5 161.5t102.5 137.5t144 95.5t181.5 35.5q28 0 65.5 -6t62.5 -12.5t25 -8.5q-2 216 -9 270q-14 107 -71 140q-12 7 -26 12v37q11 7 31 17t74 27t100 17q61 0 95.5 -15.5t55.5 -64.5t21 -139v-26q0 -18 -5 -136t-10.5 -289t-5.5 -319 q0 -86 0.5 -140t4 -109t8 -85.5t14 -61t22 -44.5t32 -26.5t42 -16t55.5 -4.5v-45q-121 -62 -225 -62q-48 0 -99 29.5t-75 83.5q-133 -113 -276 -113q-82 0 -154.5 28t-133 84.5t-95.5 154t-35 225.5zM344 535q0 -194 70.5 -304t185.5 -110q81 0 133 37l2 235v510 q-110 27 -164 27q-51 0 -91.5 -26.5t-65.5 -67.5t-41 -95t-22.5 -104.5t-6.5 -101.5z" />
<glyph unicode="e" d="M76 465q0 165 56.5 299t163 212.5t243.5 78.5q80 0 144.5 -19.5t106 -49t72 -72.5t46 -81.5t24 -85t10.5 -73.5t2 -56v-47l-18 -8q-51 -20 -138 -20l-454 6q2 -23 2 -76q4 -149 89.5 -234t190.5 -85q40 0 81 8t88 27.5t93.5 58.5t82.5 94q8 -32 9 -64q0 -30 -9 -60 q-17 -60 -59.5 -103.5t-102.5 -76t-130 -49t-141 -16.5q-91 0 -170 28.5t-142.5 86t-101 154.5t-38.5 223zM336 645q59 1 178 6t184 6q-1 49 -11 95.5t-30 87.5t-54 65.5t-77 24.5q-41 0 -73.5 -22t-54.5 -64.5t-36 -89t-26 -109.5z" />
<glyph unicode="f" horiz-adv-x="698" d="M72 969l10 61q40 4 75 32t40 85q10 96 38.5 171.5t67 121.5t88 76t97 41.5t98.5 11.5q109 0 177 -48.5t68 -115.5q0 -48 -34.5 -78.5t-81.5 -30.5q-41 0 -78 27q1 5 1 11q0 30 -20 56q-24 29 -83 29q-119 0 -119 -168q0 -7 1 -20.5t1 -20.5l10 -139q0 -25 -2 -37h178 q30 0 65 7.5t44 25.5q6 -21 6 -49q0 -123 -176 -123q-16 0 -55.5 3t-57.5 3v-121q0 -625 35 -780h-287q2 39 6 290.5t4 373.5q0 199 -18 225q-20 29 -44.5 49t-39.5 26z" />
<glyph unicode="g" horiz-adv-x="1093" d="M61 -276q0 57 41 89.5t99 32.5q70 0 123 -59q-9 -31 -9 -55q0 -68 63.5 -109t151.5 -41q107 0 193 52.5t86 134.5q0 35 -18.5 57.5t-61.5 32.5t-73 13t-94 6q-14 1 -21 1q-54 2 -96.5 6t-91.5 13t-84.5 24t-66.5 37t-47 56t-16 77q0 67 41.5 119.5t114.5 85.5 q-81 48 -137 135t-56 199q0 115 55.5 214t158 159.5t229.5 60.5q136 0 225 -72l41 41h160q22 0 34 1t34.5 10.5t35.5 29.5q17 -46 17 -69q0 -53 -36 -80t-95 -27q-41 0 -91 21q-18 8 -26 4q24 -23 47 -51t49.5 -90t26.5 -126q0 -99 -37 -180t-99.5 -132t-141.5 -79t-165 -28 q-84 0 -168 24q-32 -43 -32 -74q0 -30 24.5 -47t66 -23t95.5 -8t113.5 -4t119 -7.5t113.5 -22.5t95.5 -44.5t66 -78t24.5 -119.5q0 -106 -78.5 -188t-196 -123t-247.5 -41q-123 0 -225 26t-168 82t-66 134zM365 709q0 -170 51 -273.5t141 -103.5q64 0 108 66t44 173 q0 173 -51.5 277t-143.5 104q-46 0 -81.5 -41t-51.5 -95.5t-16 -106.5z" />
<glyph unicode="h" horiz-adv-x="1230" d="M82 1458v37q12 7 32 17t75 27t102 17q96 0 132 -50t36 -154q0 -50 -8.5 -207t-10.5 -264q76 80 158.5 132t183.5 52q125 0 205 -78.5t80 -191.5q0 -28 -1 -198t-1 -189q0 -236 22 -408h-278q-6 31 -6 66q0 81 2 265t2 265q0 149 -25.5 213.5t-97.5 64.5q-136 0 -244 -100 v-104v-115v-113.5t0.5 -94.5t2 -98.5t4 -82t6.5 -88.5t10 -78h-287q5 256 6.5 570t1.5 484t2 171q0 101 -32.5 161.5t-71.5 71.5z" />
<glyph unicode="i" horiz-adv-x="614" d="M90 946v37q117 72 221 72q148 0 148 -195q0 -30 -5 -101.5t-5 -111.5v-201q0 -286 22 -446h-287l11 698q0 64 -11 113t-25 73.5t-31 39.5t-26 18.5t-12 3.5zM160 1317q0 60 42 101.5t101 41.5q56 0 96.5 -41.5t40.5 -101.5q0 -57 -40.5 -97t-96.5 -40q-59 0 -101 40 t-42 97z" />
<glyph unicode="j" horiz-adv-x="612" d="M-43 -453q42 -57 102 -57q70 0 138 31.5t125 90.5t92 153.5t35 209.5v713q1 18 3.5 56t3.5 62q1 14 1 33v27q-1 36 -5 59.5t-15 50.5t-28 42.5t-44.5 26t-63.5 10.5q-50 0 -103.5 -18t-81.5 -36l-28 -18v-37q44 -15 74.5 -74t30.5 -151v-750q0 -93 -31 -190t-87 -165 t-118 -69zM158 1317q0 60 42 101.5t101 41.5q56 0 96.5 -41.5t40.5 -101.5q0 -57 -40.5 -97t-96.5 -40q-59 0 -101 40t-42 97z" />
<glyph unicode="k" horiz-adv-x="1187" d="M88 1458v37q12 7 32 17t75 27t102 17q96 0 132 -50t36 -154q0 -37 -9.5 -326.5t-9.5 -454.5l334 275q59 48 62 86q0 19 -25 35v37q22 15 76.5 33t101.5 18q38 0 63 -17t25 -47q0 -19 -6.5 -37.5t-14.5 -33.5t-25 -33t-28.5 -29t-36 -29t-35.5 -25.5t-39 -26t-36 -23.5 l-205 -138q15 -18 63.5 -88t102 -141t117.5 -146t132.5 -126t125.5 -58v-37q-80 -47 -219 -47q-98 0 -170 49.5t-137 149.5q-32 49 -69 108.5t-59.5 95t-44 68.5t-34 47t-19.5 13q0 -136 1 -199.5t6 -146t16 -158.5h-287l11 1225v6q0 96 -32 155q-33 61 -73 72z" />
<glyph unicode="l" horiz-adv-x="612" d="M88 1458v37q12 7 32 17t75 27t102 17q96 0 132 -50t36 -154q0 -64 -6 -144q-13 -219 -13 -538v-115.5v-114t0.5 -94.5t2 -98t4 -81.5t6.5 -88.5t10 -78h-287q6 314 6 582l5 643q0 101 -32.5 161.5t-72.5 71.5z" />
<glyph unicode="m" horiz-adv-x="1843" d="M82 946v37q117 72 221 72q59 0 94 -32.5t45 -82.5l-2 -57q35 36 66 62.5t75.5 56.5t96 46.5t104.5 16.5q101 0 173 -53t98 -138q53 70 149.5 130.5t192.5 60.5q125 0 203 -78t81 -192q1 -77 -1 -220q-1 -107 -2 -173v-38q0 -68 6 -170.5t18 -193.5h-279q-6 31 -6 66 q0 81 2 265t2 265v20q0 132 -25 192q-27 66 -98 66q-130 0 -229 -88q0 -79 -1.5 -217.5t-1.5 -208t5.5 -170t17.5 -190.5h-278q-6 31 -6 66q0 81 2 265t2 265v20q0 132 -25 192q-27 66 -98 66q-136 0 -244 -100q0 -487 6 -612q4 -90 17 -162h-287l2 63l8 635v11 q0 57 -10 102q-10 49 -25.5 73.5t-31 39.5t-26.5 18z" />
<glyph unicode="n" horiz-adv-x="1230" d="M82 946v37q117 72 221 72q60 0 96 -34.5t43 -82.5l-2 -57q35 36 66 63t75.5 57.5t96 47t104.5 16.5q125 0 203.5 -78t81.5 -192q0 -80 -1.5 -220t-1.5 -210.5t5.5 -172.5t17.5 -192h-278q-6 31 -6 66q0 81 2 265t2 265v20q0 132 -25 192q-27 66 -98 66q-136 0 -244 -100 q0 -487 6 -612q4 -90 17 -162h-287l2 63l8 635v11q0 57 -10 102q-10 49 -25.5 73.5t-31 39.5t-26.5 18z" />
<glyph unicode="o" horiz-adv-x="1159" d="M76 502q0 -11 1 -27t5.5 -52.5t13 -72.5t25.5 -82t39.5 -85.5t59 -79t81 -67.5t107.5 -45.5t137 -17.5q154 0 278.5 79.5t192 208.5t67.5 278q0 127 -38.5 229t-104.5 166t-149.5 97.5t-176.5 33.5q-154 0 -277.5 -74.5t-192 -203t-68.5 -285.5zM354 586q0 58 11 118 t32.5 114.5t59 89t84.5 34.5q108 0 185 -136t77 -331q0 -165 -59 -274t-144 -109q-104 0 -175 145t-71 349z" />
<glyph unicode="p" horiz-adv-x="1183" d="M88 946v37q11 8 31 20t77 32t109 20q71 0 107 -31.5t34 -73.5q46 46 112 80.5t130 34.5q81 0 155 -33t134 -95.5t95.5 -165t35.5 -230.5q0 -84 -20.5 -165t-63.5 -154t-103.5 -128.5t-146.5 -88t-186 -32.5q-56 0 -142 19q0 -19 0.5 -88t1 -92t2 -77t3.5 -83.5t6 -69.5 t10 -74h-287q0 4 2 95t2 157v215q0 181 2 369t4 286l1 97q-1 86 -30.5 145t-74.5 74zM446 231l3 -114q86 -21 161 -21q53 0 94 26.5t66 66.5t40.5 94t21.5 103t6 99q0 190 -71 302t-185 112q-66 0 -129 -29q-7 -294 -7 -639z" />
<glyph unicode="q" horiz-adv-x="1175" d="M76 465q0 84 20.5 166t63.5 157t103 132t145.5 90.5t185.5 33.5q40 0 211 -18q136 -16 215 -16l2 -90v-74q0 -81 -6 -201q-10 -292 -10 -418q0 -435 10 -647q0 -28 6 -65h-277v227q0 59 1.5 141t1.5 88v84q-113 -82 -254 -82q-82 0 -154.5 28t-133 84.5t-95.5 154 t-35 225.5zM344 500q0 -178 71 -275.5t185 -97.5q75 0 148 51l-5 584q0 54 -10 131q-82 20 -162 20q-55 0 -97.5 -29t-66 -72.5t-38.5 -102t-20 -108.5t-5 -101z" />
<glyph unicode="r" horiz-adv-x="868" d="M86 946v37q112 72 219 72q129 0 129 -123q0 -2 -2 -17.5t-5 -38.5t-5 -40q12 30 39.5 68t64.5 74.5t85 61.5t94 25q86 0 127.5 -42t41.5 -99q0 -55 -37 -94t-96 -39q-3 0 -10.5 1t-11.5 1q-16 81 -94 81q-49 0 -85 -22t-56.5 -57t-32.5 -89.5t-15.5 -106t-3.5 -120.5 q0 -166 5 -268t22 -211h-279q0 41 5 289.5t5 408.5q0 72 -11.5 123t-31 76t-33 35t-28.5 14z" />
<glyph unicode="s" horiz-adv-x="874" d="M78 737q0 150 106.5 239t282.5 89q163 0 291 -78q8 -29 10 -65v-6q0 -34 -14 -78q-15 -48 -49 -84l-37 8q-16 49 -45.5 86t-64.5 56t-68.5 27.5t-65.5 8.5q-62 0 -112 -28t-50 -91q0 -29 24 -56.5t63 -49t89 -46t102.5 -47.5t102.5 -54.5t89 -66t63 -83.5t24 -105 q0 -160 -113 -250t-292 -90q-138 0 -235 73.5t-97 168.5q0 46 22 80q6 -71 104.5 -128.5t199.5 -57.5q80 0 137 29.5t57 92.5q0 32 -29 60.5t-75 53t-102 50.5t-112 58t-102 70t-75 93.5t-29 120.5z" />
<glyph unicode="t" horiz-adv-x="794" d="M70 969l10 61q6 0 15.5 1.5t33.5 11t48 26.5t56 52t60 83h164l-23 -170h191q30 0 64.5 7.5t43.5 25.5q6 -21 6 -49q0 -123 -176 -123q-16 0 -66.5 3t-68.5 3v-461v-22v-51.5t2.5 -49.5t7 -50.5t14 -42t23 -36t34.5 -21.5t48 -9q62 0 129 20.5t84 54.5q11 -26 11 -52 q0 -37 -22 -73q-37 -62 -115.5 -98.5t-168.5 -36.5q-94 0 -155.5 22t-93.5 68t-44 103.5t-12 142.5q0 76 10 226.5t10 218.5q0 118 -18 141q-42 54 -102 74z" />
<glyph unicode="u" horiz-adv-x="1218" d="M66 946v37q42 27 100.5 49.5t107.5 22.5t81 -15t48 -44.5t21.5 -61.5t5.5 -78q0 -62 -4 -196.5t-4 -206.5q0 -58 1.5 -95.5t9 -82t21 -69.5t38.5 -42t61 -17q79 0 141 27.5t99 69.5q0 23 2 173.5t2 268.5q0 227 -105 260v37q30 23 92 47.5t111 24.5q51 0 84.5 -15 t49.5 -44t22 -59t6 -71q0 -6 -1 -50.5t-2 -170t-1 -330.5q0 -88 10 -134t35 -66q41 -35 116 -35v-45q-24 -16 -93.5 -39t-125.5 -23q-44 0 -79 18t-55.5 46.5t-32.5 58.5t-15 60q-59 -78 -156 -130.5t-211 -52.5q-119 0 -196.5 74.5t-79.5 175.5q0 25 1 133t1 262 q0 163 -31 250q-9 28 -27.5 47.5t-33.5 24.5z" />
<glyph unicode="v" horiz-adv-x="999" d="M0 989q36 26 89 46t99 20q86 0 126.5 -41t64.5 -131q20 -116 160 -508q2 -5 21.5 -51.5t21.5 -51.5q10 68 26 113l140 369q28 82 28 129q0 49 -35 69v37q29 27 76.5 46.5t89.5 19.5q76 0 76 -76q0 -53 -51 -180l-291 -684l-49 -170l-72 20q-75 13 -116 60.5t-50 89.5 q-26 82 -86 276t-92 293q-20 63 -44.5 113t-44.5 77.5t-40.5 46t-30 24.5t-14.5 7z" />
<glyph unicode="w" horiz-adv-x="1681" d="M0 989q36 26 89 46t99 20q86 0 126.5 -41t64.5 -131q20 -116 160 -508q2 -5 21.5 -51.5t21.5 -51.5q10 68 26 113l144 369q14 36 26 96q-7 12 -13.5 23.5t-13 20t-13 16t-12 13t-11 10t-9.5 7.5t-8.5 5.5t-6.5 3.5t-5 2l-2 1l-2 37q36 26 89 46t99 20q86 0 126.5 -41 t64.5 -131q20 -116 160 -508q16 -40 43 -103q0 3 3 20.5t9.5 45t13.5 47.5l140 369q28 82 28 129q0 49 -35 69v37q29 27 76.5 46.5t89.5 19.5q76 0 76 -76q0 -53 -51 -180l-291 -684l-49 -170l-72 20q-75 13 -116 60.5t-50 89.5q-54 170 -170 544l-225 -544l-49 -170l-72 20 q-75 13 -116 60.5t-50 89.5q-26 82 -86 276t-92 293q-20 63 -44.5 113t-44.5 77.5t-40.5 46t-30 24.5t-14.5 7z" />
<glyph unicode="x" horiz-adv-x="985" d="M0 0l393 479l-135 203q-17 26 -50.5 83.5t-53 86.5t-52.5 60t-69 40v37q28 20 47 32t52.5 23t66.5 11q49 0 82.5 -9.5t55 -31.5t34 -42.5t31 -57t34.5 -60.5l94 -149l23 -52q17 34 33 52l94 110q43 55 43 94q0 26 -23 43v37q29 27 76.5 46.5t89.5 19.5q36 0 54 -21.5 t18 -54.5q0 -53 -23.5 -98t-72 -99.5t-163.5 -170.5q-34 -33 -52 -52q8 -12 40 -62t43 -66.5t40 -62t43.5 -67t41 -61.5t44.5 -65.5t41 -58.5t44 -61t42 -55h-322l-39 80l2 -2q-150 233 -182 291q-5 -7 -16.5 -30t-16.5 -30q-7 -10 -32.5 -42.5t-35.5 -45.5t-31 -42 t-32.5 -46t-27.5 -42t-28 -47t-22 -44h-223z" />
<glyph unicode="y" horiz-adv-x="1007" d="M6 -305q20 -24 64.5 -40.5t89.5 -16.5q76 0 129.5 28.5t75.5 81.5l96 211l24 43q-4 1 -10.5 3.5t-23.5 12t-32 21.5t-30 32t-22 44q-24 76 -85 271.5t-94 297.5q-20 63 -44.5 113t-44.5 77.5t-40.5 46t-30 24.5t-14.5 7l-2 37q36 26 89.5 46t99.5 20q86 0 126 -41 t64 -131q20 -116 160 -508q2 -5 24.5 -51.5t24.5 -51.5q15 68 31 113l129 369q28 82 28 129q0 50 -34 69l-4 37q29 27 76 46.5t89 19.5q72 0 72 -76q0 -53 -51 -180l-408 -1004q-19 -47 -31.5 -75t-33.5 -69.5t-38.5 -66t-44.5 -53t-54.5 -44t-64.5 -26t-79 -10.5 q-92 0 -144 70q-38 50 -38 117q0 27 6 57z" />
<glyph unicode="z" horiz-adv-x="989" d="M31 53q30 27 53 62q82 132 244.5 386t220.5 345q25 38 47 49h-281q-89 0 -149 -31t-66 -78h-45q-8 12 -13 59q-2 15 -2 32q0 35 8 76q10 61 40 94l289 -13h551l8 -45q-35 -26 -62 -69l-450 -727q-7 -12 -20 -26t-22 -22l-9 -8h311q89 0 149 31t66 78h45q9 -12 13 -56 q1 -13 2 -27q1 -33 -7 -73q-10 -57 -41 -90h-288h-584z" />
<glyph unicode="{" horiz-adv-x="681" d="M2 578v45q154 0 154 579q0 86 30 155t78 109.5t101.5 62t105.5 21.5q39 0 90.5 -13t75.5 -34q-117 -1 -178.5 -83.5t-61.5 -235.5q0 -140 -18 -258t-45.5 -188.5t-57 -110.5t-55.5 -43q4 -1 10 -4.5t24.5 -22t35 -46t37 -82.5t35 -125t24.5 -179.5t10 -241.5t9 -176 q21 -104 114 -126q29 -7 66 -7q15 0 51 4q-31 -37 -95.5 -58.5t-119.5 -21.5q-105 0 -185.5 79t-80.5 212q0 188 -9 328.5t-22.5 224.5t-34.5 137t-41.5 73.5t-46.5 25.5z" />
<glyph unicode="|" horiz-adv-x="212" d="M0 -520v2068h213v-2068h-213z" />
<glyph unicode="}" horiz-adv-x="681" d="M45 -422q31 -37 95.5 -58.5t119.5 -21.5q105 0 185.5 79t80.5 212q0 188 9 328.5t22.5 224.5t34.5 137t41.5 73.5t46.5 25.5v45q-154 0 -154 579q0 86 -30 155t-78 109.5t-101.5 62t-105.5 21.5q-39 0 -90.5 -13t-75.5 -34q117 -1 178.5 -83.5t61.5 -235.5 q0 -140 18 -258t45.5 -188.5t57 -110.5t55.5 -43q-4 -1 -10 -4.5t-24.5 -22t-35 -46t-37 -82.5t-35 -125t-24.5 -179.5t-10 -241.5t-9 -176q-21 -104 -114 -126q-29 -7 -66 -7q-15 0 -51 4z" />
<glyph unicode="~" horiz-adv-x="1079" d="M170 520q2 1 6 4q70 45 115 47q34 0 147 -34.5t193 -34.5q88 0 168 56t98 140q-79 -55 -141 -55q-43 0 -160 35t-174 35q-85 0 -161 -55.5t-91 -137.5z" />
<glyph horiz-adv-x="1024" />
<glyph unicode="&#xa1;" horiz-adv-x="540" d="M80 -61q0 58 20 172q23 132 49.5 356t42.5 381l15 158h100l94 -967q4 -51 16.5 -88t22.5 -49l11 -11v-38q-87 -60 -197 -60q-75 0 -124.5 36.5t-49.5 109.5zM127 1249q0 57 40.5 97t96.5 40q59 0 101.5 -40t42.5 -97q0 -60 -42.5 -101.5t-101.5 -41.5q-56 0 -96.5 41.5 t-40.5 101.5z" />
<glyph unicode="&#xa2;" horiz-adv-x="985" d="M76 475q0 154 60 284.5t169.5 212t247.5 91.5q-1 40 -10 182q45 10 78 10q14 0 24 -4.5t15.5 -14.5t9 -20.5t3.5 -28v-30.5t-1.5 -36t-1.5 -36q0 -4 -1 -12.5t-1 -13.5q118 -16 181.5 -74t63.5 -127q0 -11 -4 -39q-131 90 -243 101q-6 -567 -4 -764q177 20 286 182 q13 -41 13 -72q0 -99 -83.5 -174.5t-215.5 -103.5q3 -177 10 -211h-121v196h-23q-90 0 -169.5 30.5t-143.5 89.5t-101.5 157.5t-37.5 224.5zM336 541q0 -133 57.5 -241t157.5 -138l2 749q-99 -25 -158 -118t-59 -252z" />
<glyph unicode="&#xa3;" horiz-adv-x="1177" d="M31 526l14 164q4 2 9 3t12.5 1.5t13.5 1t18.5 0.5h22h28h33.5v66q0 119 5.5 189t25.5 151q10 40 25 79.5t41 85t58.5 85.5t79.5 78t102 65t128 43t156 16q71 0 143 -21t126 -67t54 -106q0 -73 -50.5 -110.5t-110.5 -37.5q-61 0 -117 50q4 8 4 36q0 47 -40.5 83t-104.5 36 q-93 0 -162.5 -94t-81.5 -223q-6 -62 -9 -118.5t-5 -141t-5 -148.5q49 -2 113 -2h39q73 0 110 2.5t89.5 18.5t97.5 49q-5 -32 -14 -58.5t-20 -46t-25.5 -36t-30.5 -27.5t-34.5 -19t-38 -12.5t-40.5 -8t-42 -4t-43 -1.5t-44 0h-22h-101q-6 -155 -48 -362t-85 -285 q220 -39 365 -39q163 0 308 46t228 134q21 -103 21 -121q0 -229 -451 -229q-145 0 -536 63q-5 1 -86.5 13.5t-116.5 17.5q59 124 96 338.5t47 425.5h-49q-47 0 -100 -23z" />
<glyph unicode="&#xa4;" horiz-adv-x="1183" d="M14 438l25 162q48 -10 102 -10q-2 36 -2 65q0 28 4 78h-51q-39 0 -78 -8l25 162q68 -10 131 -10q59 236 240.5 376t437.5 140q166 0 247 -43.5t81 -112.5q0 -58 -50 -117q-12 57 -97.5 93t-205.5 36q-152 0 -261.5 -106t-149.5 -269h379h75q115 0 199 33 q-5 -29 -14.5 -53t-21 -41t-26.5 -30.5t-32 -22t-36.5 -14.5t-40.5 -9t-43 -4.5t-45 -1.5h-47h-26h-338q0 -75 8 -143h265h90q119 0 194 33q-6 -33 -17 -59t-25.5 -44t-32.5 -31.5t-39 -21t-44 -13t-48.5 -6.5t-52 -2t-54.5 0h-29h-178q97 -333 418 -333q22 0 47.5 4 t69.5 17.5t96 47t100 84.5v-18q0 -131 -102 -203t-275 -72q-253 0 -412 126t-210 349h-68q-44 0 -82 -8z" />
<glyph unicode="&#xa5;" horiz-adv-x="1103" d="M0 1317l18 43q68 33 177 33q131 0 170 -50q17 -46 44.5 -108t63.5 -134.5t61.5 -122t62.5 -120t42 -80.5q10 41 33 80l153 277q27 52 27 92q0 41 -29 90l19 43q61 24 131 24q60 0 117 -36q0 -40 -36 -135t-75 -146l-260 -340q249 0 272 16q-8 -27 -19 -50t-21.5 -39.5 t-26 -29.5t-27.5 -21.5t-31.5 -14.5t-31.5 -9.5t-35.5 -5.5t-35 -2.5t-37 -1t-36.5 -0.5q-12 -91 -12 -163h38q252 0 275 16q-6 -27 -15.5 -49.5t-19.5 -39t-27 -29.5t-29.5 -21.5t-34 -15t-34.5 -9.5t-39 -5.5t-37.5 -3t-39 -1t-37.5 -0.5q0 -154 18 -248h-264q1 52 4 136 l4 112q-47 0 -94 0.5t-76 1t-32 0.5q-29 0 -37 -2v166q0 -8 241 -8v26q0 94 -2 137q-47 0 -94 0.5t-76 1t-32 0.5q-29 0 -37 -2v166q0 -4 192 -8l-168 297q-11 19 -31 54q-77 135 -110 178t-84 61z" />
<glyph unicode="&#xa7;" horiz-adv-x="860" d="M102 -311l4 37q58 -52 135.5 -83t145.5 -30h19q13 128 -20.5 287t-145.5 560q-15 54 -23 83q-102 364 -102 571q0 84 33.5 163t88.5 136t127.5 91t147.5 34q79 0 143 -21.5t100 -53t54.5 -63t17.5 -57.5l-4 -36q-57 51 -134.5 82t-145.5 30h-21q-12 -129 23 -292.5 t148 -566.5q4 -15 6.5 -24t6.5 -22.5t7 -24.5q102 -364 102 -571q0 -84 -33.5 -163t-88.5 -135t-127.5 -90t-147.5 -34q-79 0 -143 21t-99.5 52.5t-54.5 62.5t-19 57zM281 1081q0 -77 23 -184t95 -387q28 -113 42 -171t34.5 -154t27 -157t11 -137t-4 -139t-26.5 -121 q79 29 123 108.5t43 211.5q0 54 -15 136t-33 154.5t-71 280.5q-28 110 -42 170t-34.5 154.5t-27.5 156.5t-11.5 137.5t3.5 139t26 121.5q-166 -63 -163 -320z" />
<glyph unicode="&#xa8;" horiz-adv-x="786" d="M94 1325q0 52 34.5 89.5t80.5 37.5t80.5 -37.5t34.5 -89.5t-34.5 -88.5t-80.5 -36.5t-80.5 36.5t-34.5 88.5zM471 1325q0 52 34 89.5t81 37.5q46 0 80 -37.5t34 -89.5t-34 -88.5t-80 -36.5q-47 0 -81 36.5t-34 88.5z" />
<glyph unicode="&#xa9;" horiz-adv-x="1617" d="M100 633q0 216 90.5 384t264 264.5t405.5 96.5q148 0 273 -48.5t211 -134t134 -206t48 -262.5q0 -217 -89.5 -388t-261 -269.5t-399.5 -98.5q-306 0 -491 185.5t-185 476.5zM262 672q0 -162 75.5 -293t203 -203t280.5 -72q106 0 204 42.5t172.5 116.5t118.5 183t44 234 t-41.5 232t-114 180.5t-172.5 115t-215 41.5q-109 0 -209.5 -42.5t-177 -116.5t-122.5 -183t-46 -235zM446 643q0 115 48.5 212t141.5 156.5t210 59.5q123 0 192.5 -48.5t69.5 -129.5q0 -13 -4 -37q-41 32 -96 51t-109 19q-92 0 -152.5 -58.5t-60.5 -183.5q0 -99 47 -166 t133 -67q149 0 254 145q19 -37 19 -80q0 -94 -97.5 -158.5t-226.5 -64.5q-74 0 -138.5 20.5t-117 61t-83 109.5t-30.5 159z" />
<glyph unicode="&#xaa;" horiz-adv-x="858" />
<glyph unicode="&#xab;" horiz-adv-x="1302" d="M61 506q25 21 43 41l269 319q55 65 110 99t95 34q51 0 89 -13.5t56 -29.5q-18 -6 -45.5 -27t-45.5 -39l-18 -18l-221 -303q-11 -16 -29.5 -31.5t-30.5 -23.5t-14 -8q2 0 14 -8.5t30.5 -24t29.5 -31.5l221 -303q68 -70 109 -84q-50 -39 -145 -39q-39 0 -95.5 33t-109.5 96 l-269 320zM573 506q25 21 43 41l269 319q55 65 110 99t95 34q51 0 89 -13.5t56 -29.5q-18 -6 -45.5 -27t-45.5 -39l-18 -18l-221 -303q-11 -16 -29.5 -31.5t-30.5 -23.5t-14 -8q2 0 14 -8.5t30.5 -24t29.5 -31.5l221 -303q68 -70 109 -84q-50 -39 -145 -39q-39 0 -95.5 33 t-109.5 96l-269 320z" />
<glyph unicode="&#xac;" horiz-adv-x="1095" />
<glyph unicode="&#xad;" horiz-adv-x="632" d="M39 422v162q0 -9 262 -9q132 0 198.5 3.5t86.5 17.5q-2 -29 -9.5 -52t-16.5 -40.5t-25 -30.5t-30 -22t-37.5 -15t-40.5 -9t-46 -4.5t-47 -2t-51 -0.5q-27 0 -109.5 2t-95.5 2q-31 0 -39 -2z" />
<glyph unicode="&#xae;" horiz-adv-x="1617" d="M100 633q0 216 90.5 384t264 264.5t405.5 96.5q148 0 273 -48.5t211 -134t134 -206t48 -262.5q0 -217 -89.5 -388t-261 -269.5t-399.5 -98.5q-306 0 -491 185.5t-185 476.5zM262 672q0 -162 75.5 -293t203 -203t280.5 -72q106 0 204 42.5t172.5 116.5t118.5 183t44 234 t-41.5 232t-114 180.5t-172.5 115t-215 41.5q-109 0 -209.5 -42.5t-177 -116.5t-122.5 -183t-46 -235zM524 948v49q100 56 183 56q82 0 110 -103q28 41 86 76t109 35q49 0 88 -30.5t39 -72.5q0 -44 -32.5 -78.5t-96.5 -41.5q0 2 -1 6.5t-5 15t-11 18.5t-21.5 14.5t-33.5 6.5 q-37 0 -62 -24t-36.5 -69t-16 -90t-4.5 -106q0 -97 19.5 -178.5t48.5 -126.5h-295q1 22 7 107t9.5 152t3.5 124q0 65 -6.5 114t-15 74.5t-22.5 42t-23 21.5t-21 8z" />
<glyph unicode="&#xaf;" horiz-adv-x="686" d="M80 1204v162q0 -8 262 -8q70 0 104 0.5t79 2t68.5 6t33.5 11.5q-2 -29 -9.5 -52t-16.5 -40.5t-25 -30.5t-30 -22t-37.5 -15t-40.5 -9t-46 -4.5t-47 -2t-51 -0.5q-27 0 -109.5 2t-95.5 2q-31 0 -39 -2z" />
<glyph unicode="&#xb0;" horiz-adv-x="817" d="M35 1176q0 149 106.5 252.5t257.5 103.5q150 0 255.5 -103.5t105.5 -252.5q0 -150 -105.5 -253.5t-255.5 -103.5q-151 0 -257.5 103.5t-106.5 253.5zM193 1176q0 -85 60 -147t144 -62q87 0 146 61.5t59 147.5q0 88 -59 148t-146 60q-85 0 -144.5 -60.5t-59.5 -147.5z" />
<glyph unicode="&#xb1;" horiz-adv-x="915" />
<glyph unicode="&#xb4;" horiz-adv-x="692" d="M98 1202q36 12 65.5 31t51.5 46.5t35 47.5t31 53q17 32 29 49t31.5 37t46 28.5t61.5 8.5h167l-90 -155q-118 -191 -311 -191q-24 0 -53 9.5t-46.5 20.5t-17.5 15z" />
<glyph unicode="&#xb5;" horiz-adv-x="1062" />
<glyph unicode="&#xb6;" horiz-adv-x="1273" d="M117 762q0 160 71.5 296t194 215t266.5 79h2h99q266 0 357.5 4t117.5 22q-11 -68 -54 -119.5t-98 -58.5v-37q-7 -288 -10 -778q0 -111 2 -327t4.5 -385t3.5 -169h-131q8 1036 8 1147q0 321 -10 543h-92q1 3 1 -2q1 -6 -1 -50q-10 -307 -10 -757q0 -111 2 -327t4.5 -385 t3.5 -169h-131q4 450 4 594q0 59 4 86q-59 -22 -129 -22q-131 0 -242.5 86.5t-174 224.5t-62.5 289z" />
<glyph unicode="&#xb7;" horiz-adv-x="528" d="M117 496q0 60 42 101.5t101 41.5q56 0 96.5 -41.5t40.5 -101.5q0 -57 -40.5 -97.5t-96.5 -40.5q-59 0 -101 40.5t-42 97.5z" />
<glyph unicode="&#xb8;" horiz-adv-x="823" d="M178 -365q0 29 17 60q27 -27 60.5 -41.5t53.5 -16.5t49 -2q36 0 68.5 16t32.5 44q0 17 -31 33t-68.5 29t-68.5 43.5t-31 72.5q0 27 29.5 61t81.5 62l65 2q-18 -35 -18 -59q0 -16 31 -28t68 -22t68 -46t31 -95q0 -94 -71 -167t-180 -73q-92 0 -139.5 37.5t-47.5 89.5z" />
<glyph unicode="&#xb9;" horiz-adv-x="526" />
<glyph unicode="&#xba;" horiz-adv-x="843" />
<glyph unicode="&#xbb;" horiz-adv-x="1316" d="M63 55q18 -14 56.5 -26.5t89.5 -12.5q39 0 95.5 33t109.5 96l268 320l43 41q-25 21 -43 41l-268 319q-55 65 -110 99t-95 34q-51 0 -89.5 -13.5t-56.5 -29.5q18 -6 45.5 -27t45.5 -39l18 -18l221 -303q11 -16 29.5 -31.5t30.5 -23.5t14 -8q-2 0 -14 -8.5t-30.5 -24 t-29.5 -31.5l-221 -303q-68 -70 -109 -84zM575 55q18 -14 56.5 -26.5t89.5 -12.5q39 0 95.5 33t109.5 96l268 320l43 41q-25 21 -43 41l-268 319q-55 65 -110 99t-95 34q-51 0 -89.5 -13.5t-56.5 -29.5q18 -6 45.5 -27t45.5 -39l18 -18l221 -303q11 -16 29.5 -31.5 t30.5 -23.5t14 -8q-2 0 -14 -8.5t-30.5 -24t-29.5 -31.5l-221 -303q-68 -70 -109 -84z" />
<glyph unicode="&#xbc;" horiz-adv-x="1267" />
<glyph unicode="&#xbd;" horiz-adv-x="1267" />
<glyph unicode="&#xbf;" horiz-adv-x="849" d="M47 147q0 85 35 170t87.5 151t114 131t114 113.5t87.5 94t35 76.5q0 12 -1.5 23t-5.5 21t-6.5 16t-8 15.5t-6.5 12.5l53 35q150 -66 153 -201q1 -59 -21 -115.5t-57.5 -102.5t-78.5 -91.5t-86 -90.5t-79 -90.5t-58.5 -101t-22.5 -113.5q0 -42 15 -81t55.5 -69t99.5 -30 q51 0 99 36.5t48 100.5q0 26 -8 58q42 53 103 53q60 0 100.5 -35.5t40.5 -89.5q0 -114 -110.5 -182t-272.5 -68q-197 0 -307.5 103t-110.5 251zM397 1249q0 57 41 97t97 40q59 0 101 -40t42 -97q0 -60 -42 -101.5t-101 -41.5q-56 0 -97 42t-41 101z" />
<glyph unicode="&#xc0;" horiz-adv-x="1263" d="M-10 0l461 1182q27 101 114.5 155.5t218.5 63.5q17 -96 47 -180l365 -1045q40 -115 78 -176h-328q0 45 -20 100l-121 344h-469l-146 -411l-6 -33h-194zM287 1751l94 -115q46 -56 83.5 -88t97.5 -53.5t140 -21.5q83 0 123 49q-46 14 -83 40t-55 45.5t-44 53.5 q-20 25 -30 36t-30.5 26.5t-46.5 21.5t-61 6h-188zM383 580h373l-185 526z" />
<glyph unicode="&#xc1;" horiz-adv-x="1263" d="M-10 0l461 1182q27 101 114.5 155.5t218.5 63.5q17 -96 47 -180l365 -1045q40 -115 78 -176h-328q0 45 -20 100l-121 344h-469l-146 -411l-6 -33h-194zM383 580h373l-185 526zM516 1522q46 14 83 40t55 45.5t44 53.5q20 25 30 36t30.5 26.5t46.5 21.5t61 6h189l-94 -115 q-46 -56 -84 -88t-98 -53.5t-140 -21.5q-83 0 -123 49z" />
<glyph unicode="&#xc2;" horiz-adv-x="1263" d="M-10 0l461 1182q27 101 114.5 155.5t218.5 63.5q17 -96 47 -180l365 -1045q40 -115 78 -176h-328q0 45 -20 100l-121 344h-469l-146 -411l-6 -33h-194zM227 1497q39 6 82.5 34t65.5 48.5t67 65.5q34 34 53 50.5t49 32t60 15.5h58q67 0 176 -109q35 -37 60 -59.5 t64.5 -46.5t75.5 -31q0 -5 -19.5 -15t-50.5 -18t-57 -8q-98 0 -169 41t-109 107q-44 -71 -106.5 -109.5t-172.5 -38.5q-26 0 -57 8t-50.5 18t-19.5 15zM383 580h373l-185 526z" />
<glyph unicode="&#xc3;" horiz-adv-x="1263" d="M-10 0l461 1182q27 101 114.5 155.5t218.5 63.5q17 -96 47 -180l365 -1045q40 -115 78 -176h-328q0 45 -20 100l-121 344h-469l-146 -411l-6 -33h-194zM215 1513l11 7q11 7 13 8t12.5 7.5t14.5 8t14.5 7t16.5 7t16.5 5t18 5t17.5 2.5t20 1q42 0 105.5 -19.5t142.5 -39 t159 -19.5q109 0 199.5 60t114.5 153q-101 -59 -181 -59q-55 0 -191.5 37.5t-207.5 37.5q-106 0 -190.5 -58.5t-104.5 -150.5zM383 580h373l-185 526z" />
<glyph unicode="&#xc4;" horiz-adv-x="1263" d="M-10 0l461 1182q27 101 114.5 155.5t218.5 63.5q17 -96 47 -180l365 -1045q40 -115 78 -176h-328q0 45 -20 100l-121 344h-469l-146 -411l-6 -33h-194zM313 1612q0 52 34.5 89.5t80.5 37.5t80.5 -37.5t34.5 -89.5t-34.5 -88.5t-80.5 -36.5t-80.5 36.5t-34.5 88.5z M383 580h373l-185 526zM791 1612q0 53 33.5 90t80.5 37q46 0 80.5 -37.5t34.5 -89.5t-34.5 -88.5t-80.5 -36.5q-47 0 -80.5 36.5t-33.5 88.5z" />
<glyph unicode="&#xc5;" horiz-adv-x="1263" d="M-10 0l461 1182q27 101 114.5 155.5t218.5 63.5q17 -96 47 -180l365 -1045q40 -115 78 -176h-328q0 45 -20 100l-121 344h-469l-146 -411l-6 -33h-194zM383 580h373l-185 526zM467 1626q0 -85 54 -132.5t132 -47.5q101 0 167.5 55.5t66.5 140.5q0 82 -55.5 130.5 t-135.5 48.5q-101 0 -165 -54t-64 -141zM600 1649q0 48 20.5 71t49.5 23q30 0 56 -31.5t26 -89.5q0 -50 -21 -74t-51 -24q-31 0 -55.5 33t-24.5 92z" />
<glyph unicode="&#xc6;" horiz-adv-x="1665" d="M8 0l639 1206q13 45 9.5 64t-23.5 49l16 43l461 -2l377 6q35 -52 41.5 -119.5t-15.5 -128.5h-47q-9 43 -67.5 74.5t-122.5 34.5l-180 8q0 -23 -2.5 -98.5t-5.5 -184.5t-5 -186h267q30 0 46 1t40 10t41 26q8 -36 8 -70q0 -127 -185 -127q-38 0 -112.5 2t-104.5 2v-125 q0 -107 9 -327h362q65 0 98 43q9 -44 9 -68q0 -76 -54.5 -104.5t-175.5 -28.5h-532l4 147v297h-367l-200 -397q-6 -13 -9.5 -24.5t-3.5 -16.5v-6h-215zM502 580h301v512l4 151q-2 -12 -17.5 -61t-25.5 -72z" />
<glyph unicode="&#xc7;" horiz-adv-x="1261" d="M86 649q0 214 86 381t245 260.5t365 93.5q145 0 267 -52t159 -128q0 -39 -44 -110.5t-109 -100.5l-39 31q0 21 -18.5 56.5t-50.5 72t-83 62.5t-106 26q-92 0 -163.5 -41.5t-114.5 -113.5t-65 -160.5t-22 -188.5q0 -124 26 -230.5t76.5 -189.5t131.5 -130.5t184 -47.5 q102 0 220.5 59.5t170.5 159.5q28 -81 0.5 -150.5t-92 -120.5t-159 -81t-201.5 -33q-7 -19 -7 -34q0 -14 20.5 -23t49.5 -17.5t58.5 -22.5t50 -47t20.5 -81q0 -94 -71 -167t-181 -73q-92 0 -139 37.5t-47 89.5q0 31 16 60q60 -60 164 -60q36 0 68 16t32 44q0 17 -31 33 t-68 29t-68 43.5t-31 72.5q0 48 76 102q-184 12 -315 100.5t-196 235t-65 338.5z" />
<glyph unicode="&#xc8;" horiz-adv-x="1052" d="M154 1317l16 43h342l377 6q35 -52 41.5 -119.5t-15.5 -128.5h-47q-9 43 -67.5 74.5t-122.5 34.5l-180 8q-13 -236 -13 -469h256q30 0 47 1t42 10t42 26q7 -47 7 -70q0 -127 -187 -127q-38 0 -108.5 2t-100.5 2q-1 -95 0.5 -208t3.5 -178l2 -66h359q69 0 102 43 q6 -43 6 -68q0 -76 -55 -104.5t-176 -28.5h-524l2 150v937q-2 84 -7.5 126t-13 58.5t-28.5 45.5zM236 1751l94 -115q46 -56 83.5 -88t97.5 -53.5t140 -21.5q83 0 123 49q-46 14 -83 40t-55 45.5t-44 53.5q-20 25 -30 36t-30.5 26.5t-46.5 21.5t-61 6h-188z" />
<glyph unicode="&#xc9;" horiz-adv-x="1052" d="M154 1317l16 43h342l377 6q35 -52 41.5 -119.5t-15.5 -128.5h-47q-9 43 -67.5 74.5t-122.5 34.5l-180 8q-13 -236 -13 -469h256q30 0 47 1t42 10t42 26q7 -47 7 -70q0 -127 -187 -127q-38 0 -108.5 2t-100.5 2q-1 -95 0.5 -208t3.5 -178l2 -66h359q69 0 102 43 q6 -43 6 -68q0 -76 -55 -104.5t-176 -28.5h-524l2 150v937q-2 84 -7.5 126t-13 58.5t-28.5 45.5zM395 1522q46 14 83.5 40t56 46t43.5 53q20 25 30 35.5t30.5 26.5t46 22t60.5 6h189l-94 -115q-46 -56 -84 -88t-98 -53.5t-140 -21.5q-83 0 -123 49z" />
<glyph unicode="&#xca;" horiz-adv-x="1052" d="M154 1317l16 43h342l377 6q35 -52 41.5 -119.5t-15.5 -128.5h-47q-9 43 -67.5 74.5t-122.5 34.5l-180 8q-13 -236 -13 -469h256q30 0 47 1t42 10t42 26q7 -47 7 -70q0 -127 -187 -127q-38 0 -108.5 2t-100.5 2q-1 -95 0.5 -208t3.5 -178l2 -66h359q69 0 102 43 q6 -43 6 -68q0 -76 -55 -104.5t-176 -28.5h-524l2 150v937q-2 84 -7.5 126t-13 58.5t-28.5 45.5zM166 1497q39 6 82.5 34t65.5 48.5t67 65.5q34 34 53 50.5t49 32t60 15.5h57q67 0 176 -109q35 -36 60.5 -59t65 -47t75.5 -31q0 -5 -19.5 -15t-50.5 -18t-57 -8 q-98 0 -169.5 41t-109.5 107q-29 -46 -59.5 -75.5t-86.5 -51t-132 -21.5q-26 0 -57 8t-50.5 18t-19.5 15z" />
<glyph unicode="&#xcb;" horiz-adv-x="1052" d="M154 1317l16 43h342l377 6q35 -52 41.5 -119.5t-15.5 -128.5h-47q-9 43 -67.5 74.5t-122.5 34.5l-180 8q-13 -236 -13 -469h256q30 0 47 1t42 10t42 26q7 -47 7 -70q0 -127 -187 -127q-38 0 -108.5 2t-100.5 2q-1 -95 0.5 -208t3.5 -178l2 -66h359q69 0 102 43 q6 -43 6 -68q0 -76 -55 -104.5t-176 -28.5h-524l2 150v937q-2 84 -7.5 126t-13 58.5t-28.5 45.5zM207 1612q0 52 34.5 89.5t80.5 37.5t80 -37.5t34 -89.5t-34 -88.5t-80 -36.5t-80.5 36.5t-34.5 88.5zM684 1612q0 52 34 89.5t81 37.5q46 0 80 -37.5t34 -89.5t-34 -88.5 t-80 -36.5q-47 0 -81 36.5t-34 88.5z" />
<glyph unicode="&#xcc;" horiz-adv-x="698" d="M-10 1751l94 -115q46 -56 84 -88t98 -53.5t140 -21.5q82 0 122 49q-46 14 -83 40t-55 45.5t-44 53.5q-20 25 -30 36t-30.5 26.5t-46.5 21.5t-61 6h-188zM156 1317l16 43q88 29 182 29q103 0 158 -27q-20 -356 -20 -811q0 -502 24 -551h-309q4 136 4 1100q0 25 -1 46.5 t-3.5 39.5t-3.5 31t-6 26t-6.5 19.5t-8.5 17t-8 13t-9 13t-9 11.5z" />
<glyph unicode="&#xcd;" horiz-adv-x="698" d="M150 1522q46 14 83 40t55 45.5t44 53.5q20 25 30 36t30.5 26.5t46.5 21.5t61 6h188l-94 -115q-46 -56 -84 -88t-98 -53.5t-140 -21.5q-82 0 -122 49zM156 1317l16 43q88 29 182 29q103 0 158 -27q-20 -356 -20 -811q0 -502 24 -551h-309q4 136 4 1100q0 25 -1 46.5 t-3.5 39.5t-3.5 31t-6 26t-6.5 19.5t-8.5 17t-8 13t-9 13t-9 11.5z" />
<glyph unicode="&#xce;" horiz-adv-x="698" d="M-59 1497q39 6 82.5 34t65.5 48.5t67 65.5q34 34 52.5 50.5t48.5 32t60 15.5h58q67 0 176 -109q35 -36 60.5 -59t65 -47t75.5 -31q0 -5 -19.5 -15t-50.5 -18t-57 -8q-98 0 -169.5 41t-109.5 107q-29 -46 -59.5 -75.5t-86.5 -51t-132 -21.5q-26 0 -57 8t-50.5 18t-19.5 15 zM156 1317l16 43q88 29 182 29q103 0 158 -27q-20 -356 -20 -811q0 -502 24 -551h-309q4 136 4 1100q0 25 -1 46.5t-3.5 39.5t-3.5 31t-6 26t-6.5 19.5t-8.5 17t-8 13t-9 13t-9 11.5z" />
<glyph unicode="&#xcf;" horiz-adv-x="698" d="M35 1612q0 52 34.5 89.5t80.5 37.5t80 -37.5t34 -89.5t-34 -88.5t-80 -36.5t-80.5 36.5t-34.5 88.5zM156 1317l16 43q88 29 182 29q103 0 158 -27q-20 -356 -20 -811q0 -502 24 -551h-309q4 136 4 1100q0 25 -1 46.5t-3.5 39.5t-3.5 31t-6 26t-6.5 19.5t-8.5 17t-8 13 t-9 13t-9 11.5zM412 1612q0 53 33.5 90t80.5 37q46 0 80.5 -37.5t34.5 -89.5t-34.5 -88.5t-80.5 -36.5q-47 0 -80.5 36.5t-33.5 88.5z" />
<glyph unicode="&#xd1;" horiz-adv-x="1593" d="M162 1317l16 43q23 15 85 25t110 4q28 -34 110.5 -126.5t191 -213t202.5 -224.5t185 -204t99 -109q19 -21 40 -61t33 -69l11 -30q-16 115 -16 158l3 144q1 152 1 444q0 139 -68 219l19 43q15 10 60 19.5t77 9.5q60 0 92 -25q-24 -544 -24 -973q0 -231 10 -391h-178 l-762 840q-70 100 -84 137q6 -35 6 -100q0 -50 -2 -143t-2 -144q0 -429 20 -590h-180v33q2 266 2 731v342q0 80 -12 123.5t-45 87.5zM373 1524q69 43 109 52q23 5 44 5q42 0 106 -19.5t143 -39t159 -19.5q109 0 199 59.5t114 151.5q-95 -55 -180 -55q-55 0 -191.5 38 t-207.5 38q-106 0 -190.5 -59.5t-104.5 -151.5z" />
<glyph unicode="&#xd2;" horiz-adv-x="1431" d="M82 657q0 -163 48.5 -296t129 -216t179 -127.5t204.5 -44.5q158 0 290 56t222 154.5t141 232.5t54 289q0 164 -46.5 295t-127 214t-186 126.5t-226.5 43.5q-195 0 -350.5 -91.5t-243.5 -257.5t-88 -378zM373 1751l94 -115q46 -56 83.5 -88t97.5 -53.5t140 -21.5 q83 0 123 49q-46 14 -83 40t-55 45.5t-44 53.5q-20 25 -30 36t-30.5 26.5t-46.5 21.5t-61 6h-188zM385 723q0 141 39.5 258.5t110.5 186.5t157 69q93 0 174 -80.5t129.5 -220t48.5 -301.5q0 -217 -87 -367.5t-216 -150.5q-98 0 -180.5 86.5t-129 225.5t-46.5 294z" />
<glyph unicode="&#xd3;" horiz-adv-x="1431" d="M82 657q0 -163 48.5 -296t129 -216t179 -127.5t204.5 -44.5q158 0 290 56t222 154.5t141 232.5t54 289q0 164 -46.5 295t-127 214t-186 126.5t-226.5 43.5q-195 0 -350.5 -91.5t-243.5 -257.5t-88 -378zM385 723q0 141 39.5 258.5t110.5 186.5t157 69q93 0 174 -80.5 t129.5 -220t48.5 -301.5q0 -217 -87 -367.5t-216 -150.5q-98 0 -180.5 86.5t-129 225.5t-46.5 294zM524 1522q46 14 83.5 40t56 46t43.5 53q20 25 30 35.5t30.5 26.5t46 22t60.5 6h189l-94 -115q-46 -56 -84 -88t-98 -53.5t-140 -21.5q-83 0 -123 49z" />
<glyph unicode="&#xd4;" horiz-adv-x="1431" d="M82 657q0 -163 48.5 -296t129 -216t179 -127.5t204.5 -44.5q158 0 290 56t222 154.5t141 232.5t54 289q0 164 -46.5 295t-127 214t-186 126.5t-226.5 43.5q-195 0 -350.5 -91.5t-243.5 -257.5t-88 -378zM324 1497q39 6 82.5 34t65.5 48.5t67 65.5q34 34 52.5 50.5 t48.5 32t60 15.5h58q67 0 176 -109q35 -36 60.5 -59t65 -47t75.5 -31q0 -5 -19.5 -15t-50.5 -18t-57 -8q-98 0 -169.5 41t-109.5 107q-29 -46 -59.5 -75.5t-86.5 -51t-132 -21.5q-26 0 -57 8t-50.5 18t-19.5 15zM385 723q0 141 39.5 258.5t110.5 186.5t157 69 q93 0 174 -80.5t129.5 -220t48.5 -301.5q0 -217 -87 -367.5t-216 -150.5q-98 0 -180.5 86.5t-129 225.5t-46.5 294z" />
<glyph unicode="&#xd5;" horiz-adv-x="1431" d="M82 657q0 -163 48.5 -296t129 -216t179 -127.5t204.5 -44.5q158 0 290 56t222 154.5t141 232.5t54 289q0 164 -46.5 295t-127 214t-186 126.5t-226.5 43.5q-195 0 -350.5 -91.5t-243.5 -257.5t-88 -378zM285 1513q1 1 12.5 8t14.5 9t14 8.5t16.5 8.5t16.5 7t18.5 7 t18.5 5t21 4t21 1q42 0 106 -19.5t143 -39t159 -19.5q109 0 199 60t114 153q-101 -59 -180 -59q-55 0 -191.5 37.5t-207.5 37.5q-106 0 -190.5 -58.5t-104.5 -150.5zM385 723q0 141 39.5 258.5t110.5 186.5t157 69q93 0 174 -80.5t129.5 -220t48.5 -301.5q0 -217 -87 -367.5 t-216 -150.5q-98 0 -180.5 86.5t-129 225.5t-46.5 294z" />
<glyph unicode="&#xd6;" horiz-adv-x="1431" d="M82 657q0 -163 48.5 -296t129 -216t179 -127.5t204.5 -44.5q158 0 290 56t222 154.5t141 232.5t54 289q0 164 -46.5 295t-127 214t-186 126.5t-226.5 43.5q-195 0 -350.5 -91.5t-243.5 -257.5t-88 -378zM381 1612q0 52 34.5 89.5t80.5 37.5t80 -37.5t34 -89.5t-34 -88.5 t-80 -36.5t-80.5 36.5t-34.5 88.5zM385 723q0 141 39.5 258.5t110.5 186.5t157 69q93 0 174 -80.5t129.5 -220t48.5 -301.5q0 -217 -87 -367.5t-216 -150.5q-98 0 -180.5 86.5t-129 225.5t-46.5 294zM858 1612q0 52 34 89.5t81 37.5q46 0 80 -37.5t34 -89.5t-34 -88.5 t-80 -36.5q-47 0 -81 36.5t-34 88.5z" />
<glyph unicode="&#xd8;" horiz-adv-x="1431" d="M-12 80l178 174q-82 167 -82 403q0 211 87 376t245 257t360 92q228 0 377 -149l29 29q17 20 58.5 65t66.5 74q48 -30 61 -47q14 -14 17 -27.5t-7.5 -29t-21 -27.5t-33.5 -33.5t-35 -34.5l-22 -22l-37 -37q112 -174 112 -438q-2 -123 -35.5 -234.5t-95.5 -202.5t-147 -158 t-196 -104t-236 -37q-120 0 -223.5 46.5t-176.5 138.5l-157 -158zM385 733q0 -125 25 -241l260 251l288 293q-52 94 -122 146.5t-148 52.5q-125 0 -214 -144t-89 -358zM446 373q45 -119 119 -188.5t162 -69.5q46 0 92.5 24.5t88 71.5t73.5 109.5t51 144.5t19 170 q0 165 -47 295q-213 -207 -340 -336q-113 -113 -218 -221z" />
<glyph unicode="&#xd9;" horiz-adv-x="1480" d="M147 1317l17 43q88 29 182 29q103 0 158 -27q-21 -410 -21 -875q0 -92 27 -162.5t73.5 -111.5t102.5 -61.5t119 -20.5q82 0 156.5 32.5t124.5 97t51 145.5l6 692q1 83 -17 130.5t-51 88.5l19 43q15 10 60 19.5t77 9.5q60 0 92 -25q-25 -567 -25 -907q0 -120 -44 -213.5 t-122.5 -152t-182.5 -88.5t-230 -30q-100 0 -191 30t-165 87.5t-118 153.5t-44 217q0 21 1 300.5t1 338.5q0 29 -1.5 53.5t-3 41t-6.5 33.5t-6.5 24.5t-9 21t-9 15.5t-11.5 15zM426 1751l94 -115q46 -56 84 -88t98 -53.5t140 -21.5q83 0 123 49q-46 14 -83.5 40t-56 46 t-43.5 53q-20 25 -30 36t-30.5 26.5t-46.5 21.5t-61 6h-188z" />
<glyph unicode="&#xda;" horiz-adv-x="1480" d="M147 1317l17 43q88 29 182 29q103 0 158 -27q-21 -410 -21 -875q0 -92 27 -162.5t73.5 -111.5t102.5 -61.5t119 -20.5q82 0 156.5 32.5t124.5 97t51 145.5l6 692q1 83 -17 130.5t-51 88.5l19 43q15 10 60 19.5t77 9.5q60 0 92 -25q-25 -567 -25 -907q0 -120 -44 -213.5 t-122.5 -152t-182.5 -88.5t-230 -30q-100 0 -191 30t-165 87.5t-118 153.5t-44 217q0 21 1 300.5t1 338.5q0 29 -1.5 53.5t-3 41t-6.5 33.5t-6.5 24.5t-9 21t-9 15.5t-11.5 15zM621 1522q46 14 83 40t55 45.5t44 53.5q20 25 30 36t30.5 26.5t46.5 21.5t61 6h188l-94 -115 q-46 -56 -84 -88t-98 -53.5t-140 -21.5q-82 0 -122 49z" />
<glyph unicode="&#xdb;" horiz-adv-x="1480" d="M147 1317l17 43q88 29 182 29q103 0 158 -27q-21 -410 -21 -875q0 -92 27 -162.5t73.5 -111.5t102.5 -61.5t119 -20.5q82 0 156.5 32.5t124.5 97t51 145.5l6 692q1 83 -17 130.5t-51 88.5l19 43q15 10 60 19.5t77 9.5q60 0 92 -25q-25 -567 -25 -907q0 -120 -44 -213.5 t-122.5 -152t-182.5 -88.5t-230 -30q-100 0 -191 30t-165 87.5t-118 153.5t-44 217q0 21 1 300.5t1 338.5q0 29 -1.5 53.5t-3 41t-6.5 33.5t-6.5 24.5t-9 21t-9 15.5t-11.5 15zM381 1497q39 6 82.5 34t65.5 48.5t67 65.5q34 34 53 50.5t49 32t60 15.5h57q67 0 176 -109 q35 -36 60.5 -59t65 -47t75.5 -31q0 -5 -19.5 -15t-50.5 -18t-57 -8q-98 0 -169.5 41t-109.5 107q-29 -46 -59.5 -75.5t-86.5 -51t-132 -21.5q-26 0 -57 8t-50.5 18t-19.5 15z" />
<glyph unicode="&#xdc;" horiz-adv-x="1480" d="M147 1317l17 43q88 29 182 29q103 0 158 -27q-21 -410 -21 -875q0 -92 27 -162.5t73.5 -111.5t102.5 -61.5t119 -20.5q82 0 156.5 32.5t124.5 97t51 145.5l6 692q1 83 -17 130.5t-51 88.5l19 43q15 10 60 19.5t77 9.5q60 0 92 -25q-25 -567 -25 -907q0 -120 -44 -213.5 t-122.5 -152t-182.5 -88.5t-230 -30q-100 0 -191 30t-165 87.5t-118 153.5t-44 217q0 21 1 300.5t1 338.5q0 29 -1.5 53.5t-3 41t-6.5 33.5t-6.5 24.5t-9 21t-9 15.5t-11.5 15zM430 1612q0 52 34.5 89.5t80.5 37.5t80 -37.5t34 -89.5t-34 -88.5t-80 -36.5t-80.5 36.5 t-34.5 88.5zM907 1612q0 52 34 89.5t81 37.5q46 0 80.5 -37.5t34.5 -89.5t-34.5 -88.5t-80.5 -36.5q-47 0 -81 36.5t-34 88.5z" />
<glyph unicode="&#xdf;" horiz-adv-x="1171" d="M45 952l10 62q4 1 10.5 2.5t24 8.5t31 16.5t25.5 28t14 40.5q4 57 20 114t54.5 120.5t93.5 111.5t146 79.5t204 31.5q94 0 171.5 -25.5t128 -82t50.5 -136.5q0 -58 -24.5 -121.5t-60 -117.5t-71 -106t-60 -104t-24.5 -94q0 -25 21 -49t55 -46.5t75 -47.5t81.5 -57 t74.5 -68.5t55 -88t21 -110.5q0 -158 -110.5 -249t-288.5 -91q-116 0 -182 48t-66 118q0 40 25 82q0 -45 65 -78.5t144 -33.5q73 0 121.5 34.5t48.5 106.5q0 30 -28 62.5t-69.5 60t-90 63.5t-90 72t-69.5 85.5t-28 102.5q0 43 18 92t37.5 82t55.5 88q37 57 57 91.5 t39.5 95.5t19.5 123q0 159 -157 159q-88 0 -145.5 -62t-57.5 -171q0 -24 -3 -265.5t-3 -287.5q0 -429 35 -641h-295v39q0 8 3.5 106t7 223.5t3.5 200.5q0 273 -18 299q-20 29 -46.5 50t-42.5 28z" />
<glyph unicode="&#xe0;" d="M55 244q0 145 125.5 231t306.5 86q63 0 125 -16q4 86 4 127q0 61 -5.5 105.5t-20.5 84.5t-45.5 61t-75.5 21q-66 0 -102.5 -47t-22.5 -115q-52 -43 -115 -43q-49 0 -83.5 30t-34.5 79q0 95 109 156t249 61q189 0 297 -82t108 -238q0 -30 -2 -122t-2 -181q0 -244 25 -295 q34 -67 143 -67v-45q-38 -24 -106 -43t-123 -19q-66 0 -115.5 50t-56.5 100q-36 -71 -114.5 -110.5t-155.5 -39.5q-152 0 -232 80.5t-80 190.5zM145 1503l91 -155q118 -191 311 -191q24 0 53 9.5t46.5 20.5t17.5 15q-36 12 -65.5 31t-51.5 46.5t-35 47.5t-31 53 q-17 32 -29 49t-31.5 37t-46 28.5t-61.5 8.5h-168zM299 285q0 -68 42 -110t97 -42q88 0 178 60q-4 92 -4 278q-28 -1 -55 -4t-65.5 -10t-70 -20.5t-60.5 -33t-45.5 -50t-16.5 -68.5z" />
<glyph unicode="&#xe1;" d="M55 244q0 145 125.5 231t306.5 86q63 0 125 -16q4 86 4 127q0 61 -5.5 105.5t-20.5 84.5t-45.5 61t-75.5 21q-66 0 -102.5 -47t-22.5 -115q-52 -43 -115 -43q-49 0 -83.5 30t-34.5 79q0 95 109 156t249 61q189 0 297 -82t108 -238q0 -30 -2 -122t-2 -181q0 -244 25 -295 q34 -67 143 -67v-45q-38 -24 -106 -43t-123 -19q-66 0 -115.5 50t-56.5 100q-36 -71 -114.5 -110.5t-155.5 -39.5q-152 0 -232 80.5t-80 190.5zM299 285q0 -68 42 -110t97 -42q88 0 178 60q-4 92 -4 278q-28 -1 -55 -4t-65.5 -10t-70 -20.5t-60.5 -33t-45.5 -50t-16.5 -68.5 zM338 1202q36 12 65 31t51.5 46.5t35 47t30.5 53.5q17 32 29 49t31.5 37t46 28.5t61.5 8.5h168l-90 -155q-118 -191 -311 -191q-24 0 -53 9.5t-46.5 20.5t-17.5 15z" />
<glyph unicode="&#xe2;" d="M55 244q0 145 125.5 231t306.5 86q63 0 125 -16q4 86 4 127q0 61 -5.5 105.5t-20.5 84.5t-45.5 61t-75.5 21q-66 0 -102.5 -47t-22.5 -115q-52 -43 -115 -43q-49 0 -83.5 30t-34.5 79q0 95 109 156t249 61q189 0 297 -82t108 -238q0 -30 -2 -122t-2 -181q0 -244 25 -295 q34 -67 143 -67v-45q-38 -24 -106 -43t-123 -19q-66 0 -115.5 50t-56.5 100q-36 -71 -114.5 -110.5t-155.5 -39.5q-152 0 -232 80.5t-80 190.5zM145 1202q25 5 50 21.5t51.5 47t42 50.5t43.5 59q42 58 77 90.5t74 32.5h49q35 0 67 -21.5t49 -43t50 -68.5q33 -48 53 -74.5 t53.5 -56.5t65.5 -37q0 -4 -17.5 -15t-46 -20.5t-52.5 -9.5q-62 0 -102.5 16.5t-56.5 34t-46 60.5q-7 9 -10 14q-9 14 -16.5 34.5t-10.5 33.5l-4 14q-11 -51 -31 -82q-2 -3 -13.5 -20t-13.5 -20t-13 -17.5t-15.5 -17.5t-16 -13.5t-20 -13t-22.5 -9t-28.5 -8.5t-33 -4 t-39.5 -2q-24 0 -53 9.5t-46.5 20.5t-17.5 15zM299 285q0 -68 42 -110t97 -42q88 0 178 60q-4 92 -4 278q-28 -1 -55 -4t-65.5 -10t-70 -20.5t-60.5 -33t-45.5 -50t-16.5 -68.5z" />
<glyph unicode="&#xe3;" d="M55 244q0 145 125.5 231t306.5 86q63 0 125 -16q4 86 4 127q0 61 -5.5 105.5t-20.5 84.5t-45.5 61t-75.5 21q-66 0 -102.5 -47t-22.5 -115q-52 -43 -115 -43q-49 0 -83.5 30t-34.5 79q0 95 109 156t249 61q189 0 297 -82t108 -238q0 -30 -2 -122t-2 -181q0 -244 25 -295 q34 -67 143 -67v-45q-38 -24 -106 -43t-123 -19q-66 0 -115.5 50t-56.5 100q-36 -71 -114.5 -110.5t-155.5 -39.5q-152 0 -232 80.5t-80 190.5zM143 1239q59 40 93 48q14 3 28 3q34 0 147 -34.5t193 -34.5q88 0 168 56t98 140q-79 -55 -141 -55q-43 0 -160 35t-174 35 q-85 0 -161 -55.5t-91 -137.5zM299 285q0 -68 42 -110t97 -42q88 0 178 60q-4 92 -4 278q-28 -1 -55 -4t-65.5 -10t-70 -20.5t-60.5 -33t-45.5 -50t-16.5 -68.5z" />
<glyph unicode="&#xe4;" d="M55 244q0 145 125.5 231t306.5 86q63 0 125 -16q4 86 4 127q0 61 -5.5 105.5t-20.5 84.5t-45.5 61t-75.5 21q-66 0 -102.5 -47t-22.5 -115q-52 -43 -115 -43q-49 0 -83.5 30t-34.5 79q0 95 109 156t249 61q189 0 297 -82t108 -238q0 -30 -2 -122t-2 -181q0 -244 25 -295 q34 -67 143 -67v-45q-38 -24 -106 -43t-123 -19q-66 0 -115.5 50t-56.5 100q-36 -71 -114.5 -110.5t-155.5 -39.5q-152 0 -232 80.5t-80 190.5zM197 1325q0 52 34 89.5t80 37.5t80.5 -37.5t34.5 -89.5t-34.5 -88.5t-80.5 -36.5t-80 36.5t-34 88.5zM299 285q0 -68 42 -110 t97 -42q88 0 178 60q-4 92 -4 278q-28 -1 -55 -4t-65.5 -10t-70 -20.5t-60.5 -33t-45.5 -50t-16.5 -68.5zM573 1325q0 52 34 89.5t81 37.5q46 0 80.5 -37.5t34.5 -89.5t-34.5 -88.5t-80.5 -36.5q-47 0 -81 36.5t-34 88.5z" />
<glyph unicode="&#xe5;" d="M55 244q0 145 125.5 231t306.5 86q63 0 125 -16q4 86 4 127q0 61 -5.5 105.5t-20.5 84.5t-45.5 61t-75.5 21q-66 0 -102.5 -47t-22.5 -115q-52 -43 -115 -43q-49 0 -83.5 30t-34.5 79q0 95 109 156t249 61q189 0 297 -82t108 -238q0 -30 -2 -122t-2 -181q0 -244 25 -295 q34 -67 143 -67v-45q-38 -24 -106 -43t-123 -19q-66 0 -115.5 50t-56.5 100q-36 -71 -114.5 -110.5t-155.5 -39.5q-152 0 -232 80.5t-80 190.5zM297 1337q0 -85 54 -132.5t132 -47.5q101 0 167.5 56t66.5 141q0 82 -55.5 130t-135.5 48q-101 0 -165 -54t-64 -141zM299 285 q0 -68 42 -110t97 -42q88 0 178 60q-4 92 -4 278q-28 -1 -55 -4t-65.5 -10t-70 -20.5t-60.5 -33t-45.5 -50t-16.5 -68.5zM430 1360q0 48 20.5 71t49.5 23q30 0 56 -31.5t26 -89.5q0 -50 -21 -74t-51 -24q-31 0 -55.5 33t-24.5 92z" />
<glyph unicode="&#xe6;" horiz-adv-x="1564" d="M55 244q0 63 24 114.5t67 87t96 62t119 42.5t127 24.5t128 11.5q0 8 1 18.5t1 13.5q0 50 -1.5 83.5t-6 75t-14.5 68t-25.5 51.5t-41.5 36.5t-60 11.5q-59 0 -93 -42.5t-34 -96.5q0 -4 1 -11.5t1 -11.5q-48 -34 -102 -34q-55 0 -93 27t-38 73q0 61 53 112t134.5 78 t170.5 27q219 0 315 -141q118 131 279 131q78 0 141.5 -18t104.5 -46.5t72 -68.5t47 -77t25.5 -80t12 -71t2.5 -55v-47l-18 -8q-33 -13 -137 -21l-465 -31q4 -181 87.5 -279.5t205.5 -98.5q40 0 81 8t88 27.5t93 58.5t82 94q8 -31 8 -63q0 -90 -66 -161.5t-165.5 -108 t-208.5 -36.5q-116 0 -213 47.5t-156 143.5q-45 -77 -138.5 -134t-178.5 -57q-152 0 -232 80.5t-80 190.5zM319 285q0 -14 3 -29q10 -59 49.5 -91t87.5 -32q52 0 106.5 27.5t87.5 64.5q-41 100 -41 240v39q-46 -8 -91 -22.5t-93.5 -40t-78.5 -66t-30 -90.5zM860 618l363 62 q-2 101 -47.5 175.5t-124.5 74.5q-41 0 -73.5 -26t-54.5 -74.5t-36.5 -97.5t-26.5 -114z" />
<glyph unicode="&#xe7;" horiz-adv-x="985" d="M76 475q0 160 66 295.5t183.5 215t260.5 79.5q145 0 244.5 -53t99.5 -142q0 -55 -39 -91t-90 -36q-55 0 -94 45q-2 57 -39 96.5t-105 39.5q-69 0 -123 -56.5t-82 -143t-28 -183.5q0 -98 31.5 -184.5t96.5 -144.5t150 -58q212 0 334 184q12 -37 12 -72q0 -114 -107 -194.5 t-265 -94.5q-9 -23 -9 -38q0 -14 20.5 -23t49.5 -17.5t58.5 -22.5t50 -47t20.5 -81q0 -94 -71 -167t-181 -73q-92 0 -139 37.5t-47 89.5q0 31 16 60q60 -60 164 -60q36 0 68 16t32 44q0 17 -31 33t-68 29t-68 43.5t-31 72.5q0 48 76 102q-89 5 -163 37t-131.5 91.5 t-89.5 154.5t-32 217z" />
<glyph unicode="&#xe8;" d="M76 465q0 165 56.5 299t163 212.5t243.5 78.5q80 0 144.5 -19.5t106 -49t72 -72.5t46 -81.5t24 -85t10.5 -73.5t2 -56v-47l-18 -8q-51 -20 -138 -20l-454 6q2 -23 2 -76q4 -149 89.5 -234t190.5 -85q40 0 81 8t88 27.5t93.5 58.5t82.5 94q17 -65 0 -124.5t-59.5 -103 t-102.5 -76t-130 -49t-141 -16.5q-91 0 -170 28.5t-142.5 86t-101 154.5t-38.5 223zM199 1503l90 -155q118 -191 311 -191q24 0 53 9.5t46.5 20.5t17.5 15q-36 12 -65 31t-51.5 46.5t-35 47t-30.5 53.5q-17 32 -29 49t-31.5 37t-46 28.5t-61.5 8.5h-168zM336 645q59 1 178 6 t184 6q-1 49 -11 95.5t-30 87.5t-54 65.5t-77 24.5q-41 0 -73.5 -22t-54.5 -64.5t-36 -89t-26 -109.5z" />
<glyph unicode="&#xe9;" d="M76 465q0 165 56.5 299t163 212.5t243.5 78.5q80 0 144.5 -19.5t106 -49t72 -72.5t46 -81.5t24 -85t10.5 -73.5t2 -56v-47l-18 -8q-51 -20 -138 -20l-454 6q2 -23 2 -76q4 -149 89.5 -234t190.5 -85q40 0 81 8t88 27.5t93.5 58.5t82.5 94q17 -65 0 -124.5t-59.5 -103 t-102.5 -76t-130 -49t-141 -16.5q-91 0 -170 28.5t-142.5 86t-101 154.5t-38.5 223zM336 645q59 1 178 6t184 6q-1 49 -11 95.5t-30 87.5t-54 65.5t-77 24.5q-41 0 -73.5 -22t-54.5 -64.5t-36 -89t-26 -109.5zM401 1202q36 12 65.5 31t51.5 46.5t35 47.5t31 53q17 32 29 49 t31.5 37t46 28.5t61.5 8.5h168l-91 -155q-118 -191 -311 -191q-24 0 -53 9.5t-46.5 20.5t-17.5 15z" />
<glyph unicode="&#xea;" d="M76 465q0 165 56.5 299t163 212.5t243.5 78.5q80 0 144.5 -19.5t106 -49t72 -72.5t46 -81.5t24 -85t10.5 -73.5t2 -56v-47l-18 -8q-51 -20 -138 -20l-454 6q2 -23 2 -76q4 -149 89.5 -234t190.5 -85q40 0 81 8t88 27.5t93.5 58.5t82.5 94q17 -65 0 -124.5t-59.5 -103 t-102.5 -76t-130 -49t-141 -16.5q-91 0 -170 28.5t-142.5 86t-101 154.5t-38.5 223zM190 1202q25 5 50 21.5t51.5 47t42 50.5t43.5 59q42 58 77 90.5t74 32.5h50q21 0 41.5 -8t34 -17.5t32.5 -31.5t27.5 -34t29.5 -42q33 -48 53 -74.5t53.5 -56.5t65.5 -37q0 -4 -17.5 -15 t-46 -20.5t-52.5 -9.5q-62 0 -102.5 16.5t-56.5 34t-46 60.5q-7 9 -10 14q-9 14 -16.5 34.5t-11.5 33.5l-3 14q-11 -51 -31 -82q-2 -3 -13.5 -20t-13.5 -20t-13 -17.5t-15.5 -17.5t-16 -13.5t-20 -13t-22.5 -9t-28.5 -8.5t-33 -4t-39.5 -2q-24 0 -53 9.5t-46.5 20.5 t-17.5 15zM336 645q59 1 178 6t184 6q-1 49 -11 95.5t-30 87.5t-54 65.5t-77 24.5q-41 0 -73.5 -22t-54.5 -64.5t-36 -89t-26 -109.5z" />
<glyph unicode="&#xeb;" d="M76 465q0 165 56.5 299t163 212.5t243.5 78.5q80 0 144.5 -19.5t106 -49t72 -72.5t46 -81.5t24 -85t10.5 -73.5t2 -56v-47l-18 -8q-51 -20 -138 -20l-454 6q2 -23 2 -76q4 -149 89.5 -234t190.5 -85q40 0 81 8t88 27.5t93.5 58.5t82.5 94q17 -65 0 -124.5t-59.5 -103 t-102.5 -76t-130 -49t-141 -16.5q-91 0 -170 28.5t-142.5 86t-101 154.5t-38.5 223zM229 1325q0 52 34.5 89.5t80.5 37.5t80.5 -37.5t34.5 -89.5t-34.5 -88.5t-80.5 -36.5t-80.5 36.5t-34.5 88.5zM336 645q59 1 178 6t184 6q-1 49 -11 95.5t-30 87.5t-54 65.5t-77 24.5 q-41 0 -73.5 -22t-54.5 -64.5t-36 -89t-26 -109.5zM606 1325q0 52 34 89.5t81 37.5q46 0 80.5 -37.5t34.5 -89.5t-34.5 -88.5t-80.5 -36.5q-47 0 -81 36.5t-34 88.5z" />
<glyph unicode="&#xec;" horiz-adv-x="614" d="M-63 1503l90 -155q118 -191 311 -191q24 0 53 9.5t46.5 20.5t17.5 15q-36 12 -65.5 31t-51.5 46.5t-35 47.5t-31 53q-17 32 -29 49t-31.5 37t-46 28.5t-61.5 8.5h-167zM90 946v37q117 72 221 72q148 0 148 -195q0 -30 -5 -101.5t-5 -111.5v-201q0 -286 22 -446h-287 l11 698q0 64 -11 113t-25 73.5t-31 39.5t-26 18.5t-12 3.5z" />
<glyph unicode="&#xed;" horiz-adv-x="614" d="M90 946v37q117 72 221 72q148 0 148 -195q0 -30 -5 -101.5t-5 -111.5v-201q0 -286 22 -446h-287l11 698q0 64 -11 113t-25 73.5t-31 39.5t-26 18.5t-12 3.5zM115 1202q36 12 65 31t51.5 46.5t35 47t30.5 53.5q17 32 29 49t31.5 37t46 28.5t61.5 8.5h168l-90 -155 q-55 -89 -134 -140t-178 -51q-24 0 -52.5 9.5t-46 20.5t-17.5 15z" />
<glyph unicode="&#xee;" horiz-adv-x="614" d="M-45 1202q25 5 49.5 21t51.5 47.5t41.5 50.5t43.5 59q41 58 77 90.5t75 32.5h49q35 0 67 -21.5t49 -43t50 -68.5q33 -48 53 -74.5t53.5 -56.5t65.5 -37q0 -4 -17.5 -15t-46.5 -20.5t-53 -9.5q-62 0 -102.5 16.5t-56.5 34t-46 60.5q-7 9 -10 14q-9 14 -16.5 34.5 t-11.5 33.5l-3 14q-10 -51 -30 -82q-2 -3 -13.5 -20t-13.5 -20t-13 -17.5t-15.5 -17.5t-16 -13.5t-20 -13t-22.5 -9t-28.5 -8.5t-33 -4t-39.5 -2q-24 0 -53 9.5t-46.5 20.5t-17.5 15zM90 946v37q117 72 221 72q148 0 148 -195q0 -30 -5 -101.5t-5 -111.5v-201 q0 -286 22 -446h-287l11 698q0 64 -11 113t-25 73.5t-31 39.5t-26 18.5t-12 3.5z" />
<glyph unicode="&#xef;" horiz-adv-x="614" d="M12 1325q0 52 34.5 89.5t80.5 37.5t80.5 -37.5t34.5 -89.5t-34.5 -88.5t-80.5 -36.5t-80.5 36.5t-34.5 88.5zM90 946v37q117 72 221 72q148 0 148 -195q0 -30 -5 -101.5t-5 -111.5v-201q0 -286 22 -446h-287l11 698q0 64 -11 113t-25 73.5t-31 39.5t-26 18.5t-12 3.5z M389 1325q0 52 34 89.5t81 37.5q46 0 80 -37.5t34 -89.5t-34 -88.5t-80 -36.5q-47 0 -81 36.5t-34 88.5z" />
<glyph unicode="&#xf1;" horiz-adv-x="1230" d="M82 946v37q117 72 221 72q60 0 96 -34.5t43 -82.5l-2 -57q35 36 66 63t75.5 57.5t96 47t104.5 16.5q125 0 203.5 -78t81.5 -192q0 -80 -1.5 -220t-1.5 -210.5t5.5 -172.5t17.5 -192h-278q-6 31 -6 66q0 81 2 265t2 265q2 147 -25 212.5t-98 65.5q-136 0 -244 -100 q0 -487 6 -612q4 -90 17 -162h-287l2 63l8 635q1 64 -9.5 113t-26 73.5t-31 39.5t-26.5 18zM262 1239q59 40 93 48q14 3 28 3q34 0 147 -34.5t193 -34.5q88 0 168 56t98 140q-79 -55 -141 -55q-43 0 -160 35t-174 35q-85 0 -161 -55.5t-91 -137.5z" />
<glyph unicode="&#xf2;" horiz-adv-x="1159" d="M76 502q0 -11 1 -27t5.5 -52.5t13 -72.5t25.5 -82t39.5 -85.5t59 -79t81 -67.5t107.5 -45.5t137 -17.5q154 0 278.5 79.5t192 208.5t67.5 278q0 127 -38.5 229t-104.5 166t-149.5 97.5t-176.5 33.5q-154 0 -277.5 -74.5t-192 -203t-68.5 -285.5zM252 1503l90 -155 q118 -191 311 -191q24 0 53 9.5t46.5 20.5t17.5 15q-36 12 -65 31t-51.5 46.5t-35 47t-30.5 53.5q-17 32 -29 49t-31.5 37t-46 28.5t-61.5 8.5h-168zM354 586q0 58 11 118t32.5 114.5t59 89t84.5 34.5q108 0 185 -136t77 -331q0 -165 -59 -274t-144 -109q-104 0 -175 145 t-71 349z" />
<glyph unicode="&#xf3;" horiz-adv-x="1159" d="M76 502q0 -11 1 -27t5.5 -52.5t13 -72.5t25.5 -82t39.5 -85.5t59 -79t81 -67.5t107.5 -45.5t137 -17.5q154 0 278.5 79.5t192 208.5t67.5 278q0 127 -38.5 229t-104.5 166t-149.5 97.5t-176.5 33.5q-154 0 -277.5 -74.5t-192 -203t-68.5 -285.5zM354 586q0 58 11 118 t32.5 114.5t59 89t84.5 34.5q108 0 185 -136t77 -331q0 -165 -59 -274t-144 -109q-104 0 -175 145t-71 349zM379 1202q36 12 65 31t51.5 46.5t35 47t30.5 53.5q17 32 29 49t31.5 37t46 28.5t61.5 8.5h168l-90 -155q-118 -191 -311 -191q-24 0 -53 9.5t-46.5 20.5t-17.5 15z " />
<glyph unicode="&#xf4;" horiz-adv-x="1159" d="M76 502q0 -11 1 -27t5.5 -52.5t13 -72.5t25.5 -82t39.5 -85.5t59 -79t81 -67.5t107.5 -45.5t137 -17.5q154 0 278.5 79.5t192 208.5t67.5 278q0 127 -38.5 229t-104.5 166t-149.5 97.5t-176.5 33.5q-154 0 -277.5 -74.5t-192 -203t-68.5 -285.5zM229 1202q25 5 50 21.5 t51.5 47t42 50.5t43.5 59q42 58 77 90.5t74 32.5h49q35 0 67 -21.5t49 -43t50 -68.5q33 -48 53 -74.5t53.5 -56.5t65.5 -37q0 -4 -17.5 -15t-46 -20.5t-52.5 -9.5q-62 0 -102.5 16.5t-56.5 34t-46 60.5q-7 9 -10 14q-9 14 -16.5 34.5t-10.5 33.5l-4 14q-11 -51 -31 -82 q-2 -3 -13.5 -20t-13.5 -20t-13 -17.5t-15.5 -17.5t-16 -13.5t-20 -13t-22.5 -9t-28.5 -8.5t-33 -4t-39.5 -2q-24 0 -53 9.5t-46.5 20.5t-17.5 15zM354 586q0 58 11 118t32.5 114.5t59 89t84.5 34.5q108 0 185 -136t77 -331q0 -165 -59 -274t-144 -109q-104 0 -175 145 t-71 349z" />
<glyph unicode="&#xf5;" horiz-adv-x="1159" d="M76 502q0 -11 1 -27t5.5 -52.5t13 -72.5t25.5 -82t39.5 -85.5t59 -79t81 -67.5t107.5 -45.5t137 -17.5q154 0 278.5 79.5t192 208.5t67.5 278q0 127 -38.5 229t-104.5 166t-149.5 97.5t-176.5 33.5q-154 0 -277.5 -74.5t-192 -203t-68.5 -285.5zM219 1239q59 40 93 48 q14 3 28 3q34 0 147 -34.5t193 -34.5q88 0 168 56t98 140q-79 -55 -141 -55q-43 0 -160 35t-174 35q-85 0 -161 -55.5t-91 -137.5zM354 586q0 58 11 118t32.5 114.5t59 89t84.5 34.5q108 0 185 -136t77 -331q0 -165 -59 -274t-144 -109q-104 0 -175 145t-71 349z" />
<glyph unicode="&#xf6;" horiz-adv-x="1159" d="M76 502q0 -11 1 -27t5.5 -52.5t13 -72.5t25.5 -82t39.5 -85.5t59 -79t81 -67.5t107.5 -45.5t137 -17.5q154 0 278.5 79.5t192 208.5t67.5 278q0 127 -38.5 229t-104.5 166t-149.5 97.5t-176.5 33.5q-154 0 -277.5 -74.5t-192 -203t-68.5 -285.5zM287 1325q0 52 34 89.5 t80 37.5t80.5 -37.5t34.5 -89.5t-34.5 -88.5t-80.5 -36.5t-80 36.5t-34 88.5zM354 586q0 58 11 118t32.5 114.5t59 89t84.5 34.5q108 0 185 -136t77 -331q0 -165 -59 -274t-144 -109q-104 0 -175 145t-71 349zM664 1325q0 53 33.5 90t80.5 37q46 0 80.5 -37.5t34.5 -89.5 t-34.5 -88.5t-80.5 -36.5q-47 0 -80.5 36.5t-33.5 88.5z" />
<glyph unicode="&#xf7;" horiz-adv-x="1001" d="M141 446v162q0 -8 426 -8q132 0 198.5 3.5t86.5 17.5q-3 -32 -10.5 -57.5t-21.5 -43.5t-28.5 -31.5t-39 -21.5t-43.5 -13t-50.5 -7t-52.5 -2.5t-57 -0.5q-27 0 -191.5 2.5t-177.5 2.5q-27 0 -39 -3zM340 205q0 60 42 101.5t101 41.5q56 0 97 -42t41 -101q0 -57 -41 -97 t-97 -40q-59 0 -101 40t-42 97zM340 838q0 60 42 101.5t101 41.5q56 0 97 -42t41 -101q0 -57 -41 -97.5t-97 -40.5q-59 0 -101 40.5t-42 97.5z" />
<glyph unicode="&#xf8;" horiz-adv-x="1159" d="M8 66l142 135q-32 60 -50.5 135t-21 108.5t-2.5 57.5q0 157 68.5 285.5t192 203t277.5 74.5q170 0 293 -102q86 91 105 114q48 -30 61 -47q14 -14 16.5 -27t-7.5 -29t-20.5 -27.5t-33 -33t-35.5 -34.5l-4 -5q94 -139 94 -335q0 -149 -67.5 -278t-192 -208.5t-278.5 -79.5 q-211 0 -330 133l-121 -124zM354 586q0 -73 15 -172l180 174l188 194q-38 75 -88.5 117.5t-107.5 42.5q-47 0 -84.5 -34.5t-59 -89t-32.5 -114.5t-11 -118zM399 295q35 -95 86.5 -149t114.5 -54q85 0 144 109t59 274q0 105 -25 197q-131 -127 -235 -234q-30 -31 -83 -83 t-61 -60z" />
<glyph unicode="&#xf9;" horiz-adv-x="1218" d="M66 946v37q42 27 100.5 49.5t107.5 22.5t81 -15t48 -44.5t21.5 -61.5t5.5 -78q0 -62 -4 -196.5t-4 -206.5q0 -58 1.5 -95.5t9 -82t21 -69.5t38.5 -42t61 -17q79 0 141 27.5t99 69.5q0 23 2 173.5t2 268.5q0 227 -105 260v37q30 23 92 47.5t111 24.5q51 0 84.5 -15 t49.5 -44t22 -59t6 -71q0 -6 -1 -50.5t-2 -170t-1 -330.5q0 -88 10 -134t35 -66q41 -35 116 -35v-45q-24 -16 -93.5 -39t-125.5 -23q-44 0 -79 18t-55.5 46.5t-32.5 58.5t-15 60q-59 -78 -156 -130.5t-211 -52.5q-119 0 -196.5 74.5t-79.5 175.5q0 25 1 133t1 262 q0 163 -31 250q-9 28 -27.5 47.5t-33.5 24.5zM297 1503l90 -155q118 -191 311 -191q24 0 53 9.5t46.5 20.5t17.5 15q-36 12 -65 31t-51.5 46.5t-35 47t-30.5 53.5q-17 32 -29 49t-31.5 37t-46 28.5t-61.5 8.5h-168z" />
<glyph unicode="&#xfa;" horiz-adv-x="1218" d="M66 946v37q42 27 100.5 49.5t107.5 22.5t81 -15t48 -44.5t21.5 -61.5t5.5 -78q0 -62 -4 -196.5t-4 -206.5q0 -58 1.5 -95.5t9 -82t21 -69.5t38.5 -42t61 -17q79 0 141 27.5t99 69.5q0 23 2 173.5t2 268.5q0 227 -105 260v37q30 23 92 47.5t111 24.5q51 0 84.5 -15 t49.5 -44t22 -59t6 -71q0 -6 -1 -50.5t-2 -170t-1 -330.5q0 -88 10 -134t35 -66q41 -35 116 -35v-45q-24 -16 -93.5 -39t-125.5 -23q-44 0 -79 18t-55.5 46.5t-32.5 58.5t-15 60q-59 -78 -156 -130.5t-211 -52.5q-119 0 -196.5 74.5t-79.5 175.5q0 25 1 133t1 262 q0 163 -31 250q-9 28 -27.5 47.5t-33.5 24.5zM393 1202q36 12 65 31t51.5 46.5t35 47t30.5 53.5q17 32 29 49t31.5 37t46 28.5t61.5 8.5h168l-90 -155q-118 -191 -311 -191q-24 0 -53 9.5t-46.5 20.5t-17.5 15z" />
<glyph unicode="&#xfb;" horiz-adv-x="1218" d="M66 946v37q42 27 100.5 49.5t107.5 22.5t81 -15t48 -44.5t21.5 -61.5t5.5 -78q0 -62 -4 -196.5t-4 -206.5q0 -58 1.5 -95.5t9 -82t21 -69.5t38.5 -42t61 -17q79 0 141 27.5t99 69.5q0 23 2 173.5t2 268.5q0 227 -105 260v37q30 23 92 47.5t111 24.5q51 0 84.5 -15 t49.5 -44t22 -59t6 -71q0 -6 -1 -50.5t-2 -170t-1 -330.5q0 -88 10 -134t35 -66q41 -35 116 -35v-45q-24 -16 -93.5 -39t-125.5 -23q-44 0 -79 18t-55.5 46.5t-32.5 58.5t-15 60q-59 -78 -156 -130.5t-211 -52.5q-119 0 -196.5 74.5t-79.5 175.5q0 25 1 133t1 262 q0 163 -31 250q-9 28 -27.5 47.5t-33.5 24.5zM240 1202q25 5 49.5 21t51.5 47.5t41.5 50.5t43.5 59q41 58 77 90.5t75 32.5h49q35 0 67 -21.5t49 -43t50 -68.5q33 -48 53 -74.5t53.5 -56.5t65.5 -37q0 -4 -17.5 -15t-46.5 -20.5t-53 -9.5q-62 0 -102.5 16.5t-56.5 34 t-46 60.5q-7 9 -10 14q-9 14 -16.5 34.5t-10.5 33.5l-4 14q-11 -51 -31 -82q-2 -3 -13.5 -20t-13.5 -20t-13 -17.5t-15.5 -17.5t-16 -13.5t-20 -13t-22.5 -9t-28.5 -8.5t-33 -4t-39.5 -2q-24 0 -52.5 9.5t-46 20.5t-17.5 15z" />
<glyph unicode="&#xfc;" horiz-adv-x="1218" d="M66 946v37q42 27 100.5 49.5t107.5 22.5t81 -15t48 -44.5t21.5 -61.5t5.5 -78q0 -62 -4 -196.5t-4 -206.5q0 -58 1.5 -95.5t9 -82t21 -69.5t38.5 -42t61 -17q79 0 141 27.5t99 69.5q0 23 2 173.5t2 268.5q0 227 -105 260v37q30 23 92 47.5t111 24.5q51 0 84.5 -15 t49.5 -44t22 -59t6 -71q0 -6 -1 -50.5t-2 -170t-1 -330.5q0 -88 10 -134t35 -66q41 -35 116 -35v-45q-24 -16 -93.5 -39t-125.5 -23q-44 0 -79 18t-55.5 46.5t-32.5 58.5t-15 60q-59 -78 -156 -130.5t-211 -52.5q-119 0 -196.5 74.5t-79.5 175.5q0 25 1 133t1 262 q0 163 -31 250q-9 28 -27.5 47.5t-33.5 24.5zM301 1325q0 52 34.5 89.5t80.5 37.5t80 -37.5t34 -89.5t-34 -88.5t-80 -36.5t-80.5 36.5t-34.5 88.5zM678 1325q0 52 34 89.5t81 37.5q46 0 80 -37.5t34 -89.5t-34 -88.5t-80 -36.5q-47 0 -81 36.5t-34 88.5z" />
<glyph unicode="&#xff;" horiz-adv-x="1007" d="M6 -305q20 -24 64.5 -40.5t89.5 -16.5q76 0 129.5 28.5t75.5 81.5l96 211l24 43q-4 1 -10.5 3.5t-23.5 12t-32 21.5t-30 32t-22 44q-24 76 -85 271.5t-94 297.5q-20 63 -44.5 113t-44.5 77.5t-40.5 46t-30 24.5t-14.5 7l-2 37q36 26 89.5 46t99.5 20q86 0 126 -41 t64 -131q20 -116 160 -508q2 -5 24.5 -51.5t24.5 -51.5q15 68 31 113l129 369q28 82 28 129q0 50 -34 69l-4 37q29 27 76 46.5t89 19.5q72 0 72 -76q0 -53 -51 -180l-408 -1004q-19 -47 -31.5 -75t-33.5 -69.5t-38.5 -66t-44.5 -53t-54.5 -44t-64.5 -26t-79 -10.5 q-92 0 -144.5 70t-31.5 174zM276 1325q0 52 34.5 89.5t80.5 37.5t80.5 -37.5t34.5 -89.5t-34.5 -88.5t-80.5 -36.5t-80.5 36.5t-34.5 88.5zM653 1325q0 52 34 89.5t81 37.5q46 0 80.5 -37.5t34.5 -89.5t-34.5 -88.5t-80.5 -36.5q-47 0 -81 36.5t-34 88.5z" />
<glyph unicode="&#x152;" horiz-adv-x="1781" d="M92 637q0 204 80.5 368.5t231.5 260.5t346 96l477 -2l377 6q35 -52 41.5 -119.5t-15.5 -128.5h-47q-9 43 -67.5 74.5t-122.5 34.5l-181 8q0 -23 -2 -98.5t-5 -185t-5 -185.5h266q30 0 46 1t40 10t41 26q9 -41 9 -70q0 -127 -185 -127q-38 0 -112.5 2t-104.5 2v-125 q0 -131 8 -327h363q65 0 98 43q8 -39 8 -68q0 -76 -54.5 -104.5t-174.5 -28.5h-690q-104 0 -200 24t-181 75t-148.5 125t-100 180t-36.5 233zM395 743q0 -172 60.5 -311.5t165 -218t231.5 -78.5h68v12v945q0 82 -11 143h-184q-61 0 -119.5 -34t-105.5 -95t-76 -156t-29 -207 z" />
<glyph unicode="&#x153;" horiz-adv-x="1759" d="M76 502q0 157 68.5 285.5t192 203t277.5 74.5q96 0 191.5 -46t144.5 -116q44 64 129.5 108t175.5 44q80 0 144.5 -19.5t106 -49t72.5 -72.5t46 -81.5t24 -84.5t11 -73.5t2 -56.5v-47l-19 -8q-51 -20 -137 -20l-465 6q1 -169 88 -282t205 -113q40 0 81 8t88 27.5t93 58.5 t82 94q21 -81 -10 -152t-96 -117.5t-151 -73t-175 -26.5q-99 0 -195 45.5t-145 118.5q-56 -69 -156 -116.5t-204 -47.5q-74 0 -137 17.5t-107.5 45.5t-81 67.5t-59 79t-39.5 85.5t-25.5 82t-13 72.5t-5.5 52.5t-1 27zM354 586q0 -204 71 -349t175 -145q85 0 144 109t59 274 q0 195 -77 331t-185 136q-47 0 -84.5 -34.5t-59 -89t-32.5 -114.5t-11 -118zM1034 645q59 1 187.5 6t193.5 6q-1 49 -11 95.5t-30 87.5t-54 65.5t-77 24.5q-82 0 -136.5 -79.5t-72.5 -205.5z" />
<glyph unicode="&#x178;" horiz-adv-x="1103" d="M0 1317l18 43q68 33 177 33q131 0 170 -50q17 -46 44.5 -108t63.5 -134.5t61.5 -122t62.5 -120t42 -80.5q10 41 33 80l153 277q27 52 27 92q0 41 -29 90l19 43q61 24 131 24q60 0 117 -36q0 -36 -37.5 -129t-73.5 -152l-254 -401q0 -36 -1 -144t-1 -170q0 -245 16 -352 h-295v33q0 84 1 200.5t1 149.5q0 198 -2 233q-15 15 -43 64l-196 344q-27 49 -57.5 106t-43 80t-30.5 49t-34 37.5t-40 20.5zM225 1612q0 52 34.5 89.5t80.5 37.5t80.5 -37.5t34.5 -89.5t-34.5 -88.5t-80.5 -36.5t-80.5 36.5t-34.5 88.5zM702 1612q0 52 34 89.5t81 37.5 q46 0 80.5 -37.5t34.5 -89.5t-34.5 -88.5t-80.5 -36.5q-47 0 -81 36.5t-34 88.5z" />
<glyph unicode="&#x2c6;" horiz-adv-x="823" d="M47 1202q25 5 49.5 21t51.5 47.5t41.5 50.5t43.5 59q41 58 77 90.5t75 32.5h49q35 0 67 -21.5t49 -43t50 -68.5q33 -48 53 -74.5t53.5 -56.5t65.5 -37q0 -4 -17.5 -15t-46.5 -20.5t-53 -9.5q-62 0 -102.5 16.5t-56.5 34t-46 60.5q-7 9 -10 14q-9 14 -16.5 34.5 t-10.5 33.5l-3 14q-11 -51 -31 -82q-2 -3 -13.5 -20t-13.5 -20t-13 -17.5t-15.5 -17.5t-16 -13.5t-20 -13t-22.5 -9t-28.5 -8.5t-33 -4t-39.5 -2q-24 0 -53 9.5t-46.5 20.5t-17.5 15z" />
<glyph unicode="&#x2dc;" horiz-adv-x="778" d="M31 1239q59 40 93 48q14 3 28 3q34 0 147 -34.5t193 -34.5q88 0 168 56t98 140q-79 -55 -142 -55q-43 0 -159.5 35t-173.5 35q-85 0 -161 -55.5t-91 -137.5z" />
<glyph unicode="&#x2000;" horiz-adv-x="910" />
<glyph unicode="&#x2001;" horiz-adv-x="1821" />
<glyph unicode="&#x2002;" horiz-adv-x="910" />
<glyph unicode="&#x2003;" horiz-adv-x="1821" />
<glyph unicode="&#x2004;" horiz-adv-x="607" />
<glyph unicode="&#x2005;" horiz-adv-x="455" />
<glyph unicode="&#x2006;" horiz-adv-x="303" />
<glyph unicode="&#x2007;" horiz-adv-x="303" />
<glyph unicode="&#x2008;" horiz-adv-x="227" />
<glyph unicode="&#x2009;" horiz-adv-x="364" />
<glyph unicode="&#x200a;" horiz-adv-x="101" />
<glyph unicode="&#x2010;" horiz-adv-x="632" d="M39 422v162q0 -9 262 -9q132 0 198.5 3.5t86.5 17.5q-2 -29 -9.5 -52t-16.5 -40.5t-25 -30.5t-30 -22t-37.5 -15t-40.5 -9t-46 -4.5t-47 -2t-51 -0.5q-27 0 -109.5 2t-95.5 2q-31 0 -39 -2z" />
<glyph unicode="&#x2011;" horiz-adv-x="632" d="M39 422v162q0 -9 262 -9q132 0 198.5 3.5t86.5 17.5q-2 -29 -9.5 -52t-16.5 -40.5t-25 -30.5t-30 -22t-37.5 -15t-40.5 -9t-46 -4.5t-47 -2t-51 -0.5q-27 0 -109.5 2t-95.5 2q-31 0 -39 -2z" />
<glyph unicode="&#x2012;" horiz-adv-x="632" d="M39 422v162q0 -9 262 -9q132 0 198.5 3.5t86.5 17.5q-2 -29 -9.5 -52t-16.5 -40.5t-25 -30.5t-30 -22t-37.5 -15t-40.5 -9t-46 -4.5t-47 -2t-51 -0.5q-27 0 -109.5 2t-95.5 2q-31 0 -39 -2z" />
<glyph unicode="&#x2013;" horiz-adv-x="962" d="M59 422v160q0 -9 570 -9q224 0 265 10q13 3 19 7q-9 -53 -38 -88t-74.5 -51.5t-89.5 -22.5t-101 -6q-27 0 -264 1t-250 1q-29 0 -37 -2z" />
<glyph unicode="&#x2014;" horiz-adv-x="1431" d="M53 422v160q0 -9 1041 -9q224 0 265 10q13 3 19 7q-9 -53 -38 -88t-74.5 -51.5t-89.5 -22.5t-101 -6q-27 0 -499.5 1t-485.5 1q-29 0 -37 -2z" />
<glyph unicode="&#x2018;" horiz-adv-x="559" d="M98 1151q0 80 78 186.5t225 200.5l52 -65q-66 -63 -97.5 -126.5t-31.5 -113.5q0 -28 5.5 -46.5t16.5 -26t17 -10t16 -3.5q8 -49 -32.5 -101.5t-102.5 -52.5q-61 0 -103.5 41.5t-42.5 116.5z" />
<glyph unicode="&#x2019;" horiz-adv-x="552" d="M96 1059q129 124 129 239q0 28 -5.5 46.5t-16.5 26t-17 10t-16 3.5q-8 49 32.5 101.5t102.5 52.5q61 0 103.5 -41.5t42.5 -116.5q0 -80 -78 -186.5t-226 -200.5z" />
<glyph unicode="&#x201a;" horiz-adv-x="528" d="M55 -225q129 124 129 239q0 28 -5.5 46.5t-16.5 26t-17 10t-16 3.5q-8 49 32.5 101.5t102.5 52.5q61 0 103.5 -41.5t42.5 -116.5q0 -80 -78 -186.5t-226 -200.5z" />
<glyph unicode="&#x201c;" horiz-adv-x="899" d="M98 1151q0 80 78 186.5t225 200.5l52 -65q-66 -63 -97.5 -126.5t-31.5 -113.5q0 -28 5.5 -46.5t16.5 -26t17 -10t16 -3.5q8 -49 -32.5 -101.5t-102.5 -52.5q-61 0 -103.5 41.5t-42.5 116.5zM504 1151q0 80 78 186.5t225 200.5l51 -65q-66 -63 -97.5 -126.5t-31.5 -113.5 q0 -28 5.5 -46.5t16.5 -26t17 -10t16 -3.5q8 -49 -32.5 -101.5t-102.5 -52.5q-61 0 -103 41t-42 117z" />
<glyph unicode="&#x201d;" horiz-adv-x="913" d="M80 1059q129 124 129 239q0 28 -5.5 46.5t-16.5 26t-17 10t-16 3.5q-8 49 32.5 101.5t102.5 52.5q61 0 103 -41t42 -117q0 -80 -78 -186.5t-225 -200.5zM485 1059q129 124 129 239q0 28 -5.5 46.5t-16.5 26t-17 10t-16 3.5q-8 49 32.5 101.5t102.5 52.5q61 0 103.5 -41.5 t42.5 -116.5q0 -80 -78 -186.5t-225 -200.5z" />
<glyph unicode="&#x201e;" horiz-adv-x="888" d="M55 -225q129 124 129 239q0 28 -5.5 46.5t-16.5 26t-17 10t-16 3.5q-8 49 32.5 101.5t102.5 52.5q61 0 103.5 -41.5t42.5 -116.5q0 -80 -78 -186.5t-226 -200.5zM461 -225q129 124 129 239q0 28 -5.5 46.5t-16.5 26t-17 10t-16 3.5q-8 49 32.5 101.5t102.5 52.5 q61 0 103 -41t42 -117q0 -80 -78 -186.5t-225 -200.5z" />
<glyph unicode="&#x2022;" horiz-adv-x="868" d="M137 506q0 122 86 207.5t209 85.5q122 0 208.5 -86t86.5 -207q0 -123 -86.5 -209t-208.5 -86q-123 0 -209 86t-86 209z" />
<glyph unicode="&#x2026;" horiz-adv-x="1357" d="M127 111q0 60 42 101.5t101 41.5q56 0 97 -42t41 -101q0 -57 -41 -97.5t-97 -40.5q-59 0 -101 40.5t-42 97.5zM547 111q0 60 42 101.5t101 41.5q56 0 96.5 -41.5t40.5 -101.5q0 -57 -40.5 -97.5t-96.5 -40.5q-59 0 -101 40.5t-42 97.5zM956 111q0 60 42.5 101.5 t101.5 41.5q56 0 96.5 -41.5t40.5 -101.5q0 -57 -40.5 -97.5t-96.5 -40.5q-59 0 -101.5 40.5t-42.5 97.5z" />
<glyph unicode="&#x202f;" horiz-adv-x="364" />
<glyph unicode="&#x2039;" horiz-adv-x="755" d="M41 506q25 21 43 41l268 319q55 65 110 99t95 34q51 0 89 -13.5t56 -29.5q-18 -6 -45 -27t-45 -39l-18 -18l-221 -303q-11 -16 -29.5 -31.5t-30.5 -23.5t-14 -8q2 0 14 -8.5t30.5 -24t29.5 -31.5l221 -303q67 -70 108 -84q-50 -39 -145 -39q-39 0 -95.5 33t-109.5 96 l-268 320z" />
<glyph unicode="&#x203a;" horiz-adv-x="755" d="M43 55q50 -39 145 -39q39 0 95.5 33t109.5 96l269 320l43 41q-25 21 -43 41l-269 319q-55 65 -110 99t-95 34q-51 0 -89 -13.5t-56 -29.5q18 -6 45.5 -27t45.5 -39l18 -18l221 -303q11 -16 29 -31.5t30 -23.5t14 -8q-2 0 -14 -8.5t-30 -24t-29 -31.5l-221 -303 q-68 -70 -109 -84z" />
<glyph unicode="&#x205f;" horiz-adv-x="455" />
<glyph unicode="&#x20ac;" horiz-adv-x="1183" d="M14 438l25 162q48 -10 102 -10q-2 36 -2 65q0 28 4 78h-51q-39 0 -78 -8l25 162q68 -10 131 -10q59 236 240.5 376t437.5 140q166 0 247 -43.5t81 -112.5q0 -58 -50 -117q-12 57 -97.5 93t-205.5 36q-152 0 -261.5 -106t-149.5 -269h379h75q115 0 199 33 q-5 -29 -14.5 -53t-21 -41t-26.5 -30.5t-32 -22t-36.5 -14.5t-40.5 -9t-43 -4.5t-45 -1.5h-47h-26h-338q0 -75 8 -143h265h90q119 0 194 33q-6 -33 -17 -59t-25.5 -44t-32.5 -31.5t-39 -21t-44 -13t-48.5 -6.5t-52 -2t-54.5 0h-29h-178q97 -333 418 -333q22 0 47.5 4 t69.5 17.5t96 47t100 84.5v-18q0 -131 -102 -203t-275 -72q-253 0 -412 126t-210 349h-68q-44 0 -82 -8z" />
<glyph unicode="&#x2122;" horiz-adv-x="1685" d="M55 1292l4 62q73 0 134 108h118l-16 -108h129q26 0 44.5 6.5t23.5 13.5l6 6q6 -18 6 -34q0 -41 -30.5 -67t-82.5 -26q-10 0 -48.5 1t-47.5 1q0 -66 -1 -152t-1 -138v-34t1 -28t3 -26.5t6 -20t10.5 -18t15.5 -11t22 -8.5t30 -2q37 0 79 16t50 29q2 -8 2 -26 q0 -71 -53.5 -119.5t-134.5 -48.5q-112 0 -157.5 54.5t-45.5 162.5q0 44 4 137.5t4 136.5q0 37 -7.5 64.5t-16 40t-21 19.5t-18 8t-11.5 1zM571 1292v41q25 14 68 25.5t82 11.5q45 0 71.5 -24.5t26.5 -63.5q0 -19 -2 -29q45 56 93.5 88.5t121.5 32.5q63 0 116.5 -35 t68.5 -86q21 27 37.5 44.5t42.5 37t60 29.5t75 10q72 0 130 -51t58 -115q0 -77 -1 -158t-1 -102q0 -197 16 -262h-190q-4 45 -4 135q0 37 1 109.5t1 109.5q0 122 -16.5 165.5t-79.5 43.5q-25 0 -51 -12.5t-38 -22.5t-34 -30q0 -13 -2 -86t-2 -123q0 -208 18 -289h-190 q-5 132 -5 158q0 39 1 116.5t1 116.5q0 94 -20.5 133t-75.5 39q-61 0 -135 -84q0 -342 16 -479h-196l8 459q0 40 -7.5 70t-16.5 44t-20.5 22t-17 9.5t-8.5 1.5z" />
<glyph unicode="&#xe000;" horiz-adv-x="1054" d="M0 0v1055h1055v-1055h-1055z" />
<glyph unicode="&#xfb01;" horiz-adv-x="1312" d="M72 969l10 61q40 4 75 32t40 85q9 95 51 171.5t98 122t124.5 75.5t127.5 41.5t111 11.5q103 0 199 -27.5t163.5 -86.5t67.5 -138q0 -57 -41 -97t-97 -40q-88 0 -133 65q4 20 4 29q0 62 -63 103.5t-152 41.5q-97 0 -168 -56.5t-71 -139.5v-13l10 -139q0 -25 -2 -37h137 q30 0 65 7.5t44 25.5q6 -21 6 -49q0 -125 -158 -125q-26 0 -48 4t-42 4v-121q0 -625 35 -780h-287q2 39 6 290.5t4 373.5q0 199 -18 225q-20 29 -44.5 49t-39.5 26zM788 946v37q117 72 222 72q147 0 147 -195q0 -30 -5 -101.5t-5 -111.5v-201q0 -286 22 -446h-286l10 698 q0 64 -11 113t-25 73.5t-31 39.5t-26 18.5t-12 3.5z" />
<glyph unicode="&#xfb02;" horiz-adv-x="1310" d="M72 969l10 61q40 4 75 32t40 85q9 95 51 171.5t98 122t124.5 75.5t127.5 41.5t111 11.5q105 0 209.5 -24.5t177.5 -72.5t73 -106q0 -27 -5.5 -85.5t-6.5 -72.5q-14 -257 -14 -575q0 -413 24 -633h-286q14 1206 2 1315q-37 45 -97.5 74.5t-128.5 29.5q-97 0 -168 -56.5 t-71 -139.5l10 -152q0 -25 -2 -37h137q30 0 65 7.5t44 25.5q6 -21 6 -49q0 -125 -158 -125q-26 0 -48 4t-42 4v-121q0 -625 35 -780h-287q2 39 6 290.5t4 373.5q0 199 -18 225q-20 29 -44.5 49t-39.5 26z" />
<glyph unicode="&#xfb03;" horiz-adv-x="1658" />
</font>
</defs>
</svg>
