<?xml version="1.0" standalone="no"?>
<!DOCTYPE svg PUBLIC "-//W3C//DTD SVG 1.1//EN" "http://www.w3.org/Graphics/SVG/1.1/DTD/svg11.dtd" >
<svg xmlns="http://www.w3.org/2000/svg">
<metadata></metadata>
<defs>
<font id="fontinitalic" horiz-adv-x="618" >
<font-face units-per-em="2048" ascent="1638" descent="-410" />
<missing-glyph horiz-adv-x="552" />
<glyph horiz-adv-x="2048" />
<glyph horiz-adv-x="2048" />
<glyph unicode="&#xd;" horiz-adv-x="2048" />
<glyph horiz-adv-x="1024" />
<glyph unicode=" "  horiz-adv-x="552" />
<glyph unicode="&#x09;" horiz-adv-x="552" />
<glyph unicode="&#xa0;" horiz-adv-x="552" />
<glyph unicode="!" horiz-adv-x="567" d="M35 84q0 44 32.5 76.5t77.5 32.5q44 0 76.5 -32.5t32.5 -76.5q0 -46 -32.5 -78.5t-76.5 -32.5q-46 0 -78 32.5t-32 78.5zM162 324l121 987q5 55 0 86.5t-14 44.5l-9 12l10 47q77 45 140 45q53 0 84.5 -11.5t42 -37.5t9.5 -56t-15.5 -79t-31.5 -93.5t-40.5 -111.5 t-38.5 -123l-201 -723z" />
<glyph unicode="&#x22;" horiz-adv-x="786" d="M14 1118q48 36 83 95t54.5 115.5t37 109t41 84.5t55.5 32h106l-55 -165q-16 -48 -41.5 -94t-60 -88.5t-81 -68.5t-96.5 -26q-37 0 -43 6zM342 1118q48 36 83 95t54 115.5t36.5 109t41 84.5t55.5 32h107l-55 -165q-16 -48 -41.5 -94t-60 -88.5t-81 -68.5t-96.5 -26 q-37 0 -43 6z" />
<glyph unicode="#" horiz-adv-x="1441" d="M35 395l41 131q-1 -1 20.5 -2.5t67.5 -2.5t92.5 -1.5t118.5 -1.5q18 60 46 156.5t32 109.5h-269q-29 0 -37 -2l39 131q0 -4 301 -8q66 242 78 305q8 42 8 127q56 39 97 39q16 0 27 -5t16 -16t7.5 -21.5t1 -30t-4 -33t-6.5 -37.5q-7 -34 -97 -328h271q60 219 78 305 q8 42 8 127q56 39 96 39q16 0 27 -5t16 -16t7.5 -21.5t1 -30t-4 -33t-6.5 -37.5q-9 -44 -96 -328h98h1h1h1h1h1h1h1h1h1h1h1h1h1h1h1h1h1h1h1h1h2q215 0 253 12q8 2 12 5q-11 -29 -27.5 -52t-33.5 -37.5t-44 -24.5t-46 -15t-53.5 -7.5t-52.5 -3t-56 -0.5h-17h-94 q-8 -26 -35.5 -119t-44.5 -145h104q226 0 269 10q13 3 20 7q-11 -29 -27.5 -52t-33.5 -37.5t-44.5 -24.5t-46.5 -15t-54 -7.5t-53 -3t-56 -0.5h-17h-98q-56 -185 -104 -379l-146 -30q96 301 127 409h-274q-61 -205 -105 -379l-145 -30q103 327 127 411h-264q-29 0 -37 -2z M496 518h274q44 142 80 264h-272q-12 -40 -39.5 -127.5t-42.5 -136.5z" />
<glyph unicode="$" horiz-adv-x="937" d="M61 137q0 49 41 90q3 -45 75 -81.5t167 -36.5h6q93 466 96 483q-116 88 -158 133q-98 104 -98 223q0 67 29 138t79.5 131.5t128.5 103.5t167 53q5 29 10.5 77.5t7.5 64.5q50 10 60 10q41 0 41 -43q0 -21 -21 -107q110 -6 182 -50t72 -116q0 -49 -37 -108q0 55 -70.5 95 t-174.5 46q-9 -44 -97 -450q51 -34 82 -57t74 -62t67 -74t42 -83.5t18 -100.5q0 -161 -122.5 -282.5t-307.5 -151.5l-35 -199h-100q15 87 39 190q-124 1 -193.5 49.5t-69.5 114.5zM365 1038q0 -102 127 -194q74 364 79 395q-79 -11 -134.5 -54t-69.5 -118q-2 -8 -2 -29z M442 119q169 43 195 186q4 24 4 35q0 54 -31.5 100t-89.5 95q-12 -58 -78 -416z" />
<glyph unicode="%" horiz-adv-x="1605" d="M119 928q0 -116 59.5 -175t157.5 -59q119 0 220 63t158.5 166t57.5 220q0 114 -61 174.5t-164 60.5q-179 0 -303.5 -129t-124.5 -321zM246 0q526 751 711.5 1026t189.5 324q38 30 82 30q61 0 61 -41q0 -18 -13 -45t-25.5 -45.5t-34 -47.5t-23.5 -32t-185.5 -262 t-371 -532t-246.5 -375h-145zM264 963q0 147 62.5 239t154.5 92q72 0 111 -49t39 -137q0 -144 -70.5 -238t-159.5 -94q-68 0 -102.5 49.5t-34.5 137.5zM819 211q0 -116 59.5 -175t157.5 -59q119 0 220.5 63t159 166t57.5 220q0 114 -61.5 175t-164.5 61 q-179 0 -303.5 -129.5t-124.5 -321.5zM965 246q0 147 63 239.5t154 92.5q71 0 110 -49.5t39 -137.5q0 -145 -70 -238.5t-159 -93.5q-68 0 -102.5 49.5t-34.5 137.5z" />
<glyph unicode="&#x26;" horiz-adv-x="1384" d="M102 375q0 -173 119.5 -287.5t292.5 -114.5q267 0 457.5 172.5t222.5 440.5q18 151 35 202q86 46 136 124t50 178q0 12 -4 40q-62 -112 -125 -155q-51 -34 -161 -74t-158 -65q-78 -40 -133.5 -115.5t-55.5 -153.5q0 -31 8 -55q23 74 93.5 135.5t134.5 61.5 q39 0 60.5 -23.5t21.5 -85.5q0 -89 -31.5 -168.5t-81.5 -134.5t-111 -95.5t-122 -59.5t-113 -19q-153 0 -234 90t-81 225q0 88 32.5 174t98.5 159.5t155 111.5l-4 26q-57 66 -57 195q0 83 31.5 159t95.5 126.5t145 50.5q33 0 61 -6t55.5 -21t43.5 -45t16 -72q0 -4 -1 -11 t-1 -11q23 -14 60 -14q50 0 88.5 35.5t38.5 88.5t-54 91.5t-123 54.5t-137 16q-128 0 -244 -49.5t-192 -147t-76 -221.5q0 -67 33.5 -132.5t89.5 -108.5q-76 -30 -140.5 -75t-118.5 -107.5t-85 -147.5t-31 -182z" />
<glyph unicode="'" horiz-adv-x="425" d="M16 1118q48 36 83 95t54.5 115.5t37 109t41 84.5t55.5 32h106l-55 -165q-16 -48 -41.5 -94t-60 -88.5t-81 -68.5t-96.5 -26q-37 0 -43 6z" />
<glyph unicode="(" horiz-adv-x="651" d="M145 160q0 -188 37 -341t110.5 -246t170.5 -93q-8 0 -24 29t-37 88t-40 134t-32 181t-13 215q0 154 25.5 305t67 272t93 230.5t104 189t100 138.5t81 88.5t46.5 29.5q-106 0 -211 -73.5t-189.5 -198.5t-150.5 -280.5t-102 -330.5t-36 -337z" />
<glyph unicode=")" horiz-adv-x="651" d="M-229 -520q7 0 38.5 34.5t79.5 101t103.5 155t110.5 206.5t99.5 244.5t72.5 279.5t28 302q0 103 -13.5 198.5t-33.5 162t-43 117t-42.5 75t-31.5 24.5q107 0 185 -82t115.5 -217t37.5 -307q0 -204 -67 -437t-168 -420.5t-229 -312t-242 -124.5z" />
<glyph unicode="*" horiz-adv-x="823" d="M4 1112q5 29 17.5 51.5t26.5 37t38.5 24.5t43 15t51 7.5t51.5 3t55 0.5h14l-4 6q-123 224 -158 238q34 12 60 12q32 0 60 -14t54.5 -45t41.5 -53.5t42 -67.5l9 -22q4 16 8 22q127 204 127 250v4q59 -48 59 -113q0 -28 -13.5 -65.5t-24.5 -59.5t-38 -69l-14 -25 q-2 -4 -6 -6h61q222 0 246 17q-6 -37 -23 -63.5t-38.5 -41t-54.5 -22.5t-61.5 -10.5t-68.5 -2.5h-59l8 -12q12 -20 30 -51t28.5 -49t25 -41.5t23.5 -37.5t19 -28t17 -21t13 -10q-35 -12 -62 -12q-34 0 -62 13.5t-53.5 45.5t-40 55t-41.5 72q-3 6 -5 9l-9 24l-10 -24 q-98 -170 -113 -206q-8 -22 -8 -34v-4q-59 48 -59 115q0 31 14 69.5t26.5 62t41.5 72.5q-39 2 -111 2q-151 0 -174 -18z" />
<glyph unicode="+" horiz-adv-x="964" d="M113 457v131q0 -8 299 -8v26q0 223 -10 264q-3 13 -7 19q45 10 66 10q17 0 29.5 -4t21 -9t14 -17t8.5 -19.5t4 -25.5t1.5 -26.5t0 -31t-0.5 -31.5q0 -5 -1 -57.5t-1 -97.5h43q218 0 258 7q18 4 26 9q-6 -34 -19.5 -59t-37.5 -39.5t-44.5 -23.5t-58.5 -12.5t-59 -4 t-64 -0.5h-20h-26q-3 -147 -3 -281q0 -25 3 -37h-132q9 0 9 318q-49 0 -110 0.5t-104 1t-48 0.5q-29 0 -37 -2z" />
<glyph unicode="," horiz-adv-x="428" d="M-47 -254q105 92 144.5 145.5t39.5 118.5q0 58 -47 58q-2 8 -2 20q0 49 36.5 77t88.5 28q37 0 66.5 -32t29.5 -81q0 -83 -85 -188t-244 -195z" />
<glyph unicode="-" d="M45 436l27 131q-1 -3 17.5 -4.5t57.5 -2.5t66.5 -1h77.5q219 0 260 7q19 4 27 9q-10 -29 -26.5 -51.5t-33 -37t-44 -25t-46 -15.5t-53 -7.5t-52 -2.5h-55.5h-20q-27 0 -90 1t-76 1q-29 0 -37 -2z" />
<glyph unicode="." horiz-adv-x="432" d="M94 84q0 44 32.5 76.5t78.5 32.5q44 0 76 -32.5t32 -76.5q0 -46 -32 -78.5t-76 -32.5q-46 0 -78.5 32.5t-32.5 78.5z" />
<glyph unicode="/" horiz-adv-x="729" d="M-12 -500q247 729 399 1243.5t152 597.5q9 14 55.5 32t85.5 18q43 0 43 -54q0 -24 -9 -56.5t-22.5 -69t-15.5 -42.5q-469 -1426 -526 -1669h-162z" />
<glyph unicode="0" horiz-adv-x="1142" d="M82 371q0 -201 90 -300.5t234 -99.5q113 0 215.5 45t181.5 124.5t138 184.5t89.5 229t30.5 253q0 196 -90.5 296.5t-243.5 100.5q-180 0 -328.5 -112.5t-232.5 -303.5t-84 -417zM270 451q0 162 48 306.5t131.5 232t179.5 87.5q110 0 174.5 -99t64.5 -265q0 -128 -35 -247 t-89.5 -202t-122 -133.5t-132.5 -52.5q-104 0 -161.5 102t-57.5 271z" />
<glyph unicode="1" horiz-adv-x="634" d="M117 1057l368 151h29l35 -86q-31 -122 -37 -157q-65 -347 -147 -811q-15 -74 -15 -154h-196l2 8l168 864q11 54 7.5 90t-18.5 50l-166 -54z" />
<glyph unicode="2" horiz-adv-x="897" d="M14 0h555q58 0 98.5 15.5t59 41t26 48.5t7.5 47q0 2 -1 6t-1 6q-22 -19 -56.5 -22t-183.5 -3h-305l21 14q21 14 58.5 40.5t85 62.5t100.5 82t105.5 97t100.5 111t85 119.5t59 125.5t22 127q0 55 -15.5 103t-48.5 90t-94 66.5t-143 24.5q-90 0 -168 -24.5t-126 -70.5 t-48 -103q0 -32 22 -50t54 -18q31 0 69 20q0 56 49 101t113 45q71 0 103 -60.5t32 -146.5q0 -79 -34 -166t-88.5 -163t-120.5 -150t-132 -131.5t-120.5 -102t-88.5 -68.5l-34 -24z" />
<glyph unicode="3" horiz-adv-x="880" d="M-90 -80q32 -4 51 -4q71 0 141.5 12t147 43.5t134 80t95 129.5t37.5 184q0 61 -17.5 103t-52 64t-63.5 31t-74 17l35 55q115 49 183.5 139t68.5 189q0 60 -32 99.5t-103 39.5q-63 0 -109 -39t-53 -105q-37 -22 -74 -22q-31 0 -51 18t-20 47q0 84 100 143.5t231 59.5 q83 0 145.5 -20t97 -53.5t51 -72.5t16.5 -83q0 -190 -308 -334q128 -20 186 -89t58 -167q0 -96 -32.5 -178.5t-88.5 -142t-128.5 -105.5t-155.5 -73.5t-165.5 -41.5t-162.5 -14q-88 0 -88 90z" />
<glyph unicode="4" horiz-adv-x="962" d="M20 233q64 128 219.5 347t312 403.5t222.5 224.5h121l-21 -86q-30 -122 -34 -157q-58 -282 -119 -623q110 0 151 4t60 21q1 -22 -2 -41t-14 -42.5t-30.5 -40t-56 -28t-86.5 -12.5h-47q-2 -12 -17.5 -94.5t-21.5 -122.5q-14 -69 -14 -154h-197l3 8l69 363h-477zM215 342 h332l98 506q9 46 43 156q-74 -69 -230 -285t-243 -377z" />
<glyph unicode="5" horiz-adv-x="897" d="M-25 -80q28 -4 50 -4q66 0 130 14.5t128 50t111.5 88.5t77.5 136.5t30 187.5q0 68 -19 122t-47 86t-64 53t-67 28.5t-59 7.5q-18 0 -34 -1.5t-23 -2.5l-7 -2l-12 33l109 434l36 27h301h49q111 0 142 3.5t51 20.5q0 -28 -5.5 -51.5t-22.5 -51.5t-58 -44.5t-102 -16.5h-310 l-53 -247q54 0 107.5 -11t108.5 -38.5t97 -68.5t68.5 -107t26.5 -148q0 -121 -41 -222t-107 -167t-153 -112t-176.5 -66.5t-178.5 -20.5q-25 0 -42.5 9.5t-25 20t-12 27t-4.5 21v12.5z" />
<glyph unicode="6" horiz-adv-x="1052" d="M80 418q0 -216 89.5 -330.5t244.5 -114.5q117 0 215 49.5t161 132t97.5 187t34.5 217.5q0 144 -77.5 216.5t-193.5 72.5q-89 0 -180.5 -41t-153.5 -107q30 131 84 236t120 170.5t139 100t145 34.5q66 0 135.5 -29.5t95.5 -76.5q17 38 17 71q0 52 -44.5 90.5t-101 55 t-110.5 16.5q-93 0 -191.5 -39.5t-192.5 -120.5t-168.5 -192t-119.5 -266.5t-45 -331.5zM279 395q0 114 24 240q124 104 227 104q193 0 193 -221q0 -197 -77.5 -318.5t-188.5 -121.5q-50 0 -86 26.5t-55.5 73t-28 100t-8.5 117.5z" />
<glyph unicode="7" horiz-adv-x="817" d="M-86 -137q19 -16 45.5 -24.5t61.5 -7t75 31.5t74 88l723 1192l-27 35h-475h-49q-110 0 -139 3.5t-41 20.5q-10 -23 -15 -45t1.5 -53t29.5 -53t79.5 -38t141.5 -16q94 0 157 6.5t79 13.5l16 7l-563 -944q-67 -120 -103.5 -162t-70.5 -55z" />
<glyph unicode="8" horiz-adv-x="958" d="M49 252q0 87 37 167.5t92.5 135.5t110 90.5t100.5 50.5q-73 68 -117.5 149t-44.5 161q0 167 122 264.5t310 97.5q131 0 209 -67t78 -171q0 -57 -22 -109t-54 -89t-72.5 -69t-74.5 -52.5t-62 -35.5l-14 -7q52 -48 87.5 -86.5t71 -86.5t53.5 -98.5t18 -101.5 q0 -100 -43.5 -182t-115 -134t-160 -80t-183.5 -28q-60 0 -116 16t-104 48.5t-77 88.5t-29 128zM203 293q0 -94 49 -152.5t139 -58.5q118 0 196.5 79t78.5 171q0 79 -55.5 149.5t-164.5 163.5q-26 -12 -51.5 -27.5t-62 -47t-63.5 -68t-46.5 -92t-19.5 -117.5zM424 1067 q0 -62 43 -122t123 -130q7 4 35 21t45 28.5t43.5 36.5t42 51t27.5 66.5t12 87.5q0 71 -39.5 115.5t-122.5 44.5q-84 0 -138 -44.5t-69 -125.5q-2 -10 -2 -29z" />
<glyph unicode="9" horiz-adv-x="1052" d="M0 -29q0 -52 45 -90.5t101 -54.5t110 -16q93 0 191.5 39.5t192.5 120.5t168.5 192t119.5 266.5t45 331.5q0 88 -16.5 164t-50.5 140.5t-95.5 102t-144.5 37.5q-129 0 -232.5 -48.5t-168.5 -130.5t-99.5 -186.5t-34.5 -220.5q0 -144 77 -216t193 -72q89 0 180.5 40.5 t153.5 106.5q-30 -131 -83.5 -235.5t-119.5 -170t-139 -100t-145 -34.5q-66 0 -136 29.5t-96 76.5q-16 -36 -16 -72zM330 659q0 197 77.5 319t188.5 122q92 0 134 -83.5t42 -219.5v-28.5v-27.5t-0.5 -24t-1 -27.5t-2.5 -28t-4 -34t-5.5 -37.5t-8.5 -47q-125 -105 -228 -105 q-192 0 -192 221z" />
<glyph unicode=":" horiz-adv-x="528" d="M100 84q0 44 32.5 76.5t78.5 32.5q44 0 76 -32.5t32 -76.5q0 -46 -32 -78.5t-76 -32.5q-46 0 -78.5 32.5t-32.5 78.5zM217 676q0 44 32.5 76t78.5 32q44 0 76 -32t32 -76q0 -46 -32 -78.5t-76 -32.5q-46 0 -78.5 32.5t-32.5 78.5z" />
<glyph unicode=";" horiz-adv-x="528" d="M-39 -254q105 92 144.5 145.5t39.5 118.5q0 58 -47 58q-2 8 -2 20q0 49 36.5 77t88.5 28q37 0 66.5 -32t29.5 -81q0 -83 -85 -188t-244 -195zM217 676q0 44 32.5 76t78.5 32q44 0 76 -32t32 -76q0 -46 -32 -78.5t-76 -32.5q-46 0 -78.5 32.5t-32.5 78.5z" />
<glyph unicode="&#x3c;" horiz-adv-x="755" d="M80 506q29 -27 45 -45l272 -322q36 -43 104 -65.5t128 -22.5h30q-21 9 -43 27.5t-34 32.5l-11 14l-231 313q-14 16 -32 33t-29 26l-11 9q43 28 68 63l227 303q55 70 96 84h-30q-59 0 -130 -23.5t-110 -66.5l-268 -319z" />
<glyph unicode="=" horiz-adv-x="983" d="M113 293v131q0 -8 467 -8q218 0 258 7q19 4 26 9q-6 -34 -19.5 -59t-37.5 -39.5t-44.5 -23.5t-58.5 -12.5t-59 -4t-64 -0.5h-20q-27 0 -212.5 1t-198.5 1q-29 0 -37 -2zM113 600v131q0 -8 467 -8q218 0 258 7q18 4 26 9q-6 -34 -19.5 -59t-37.5 -39.5t-44.5 -23.5 t-58.5 -12.5t-59 -4t-64 -0.5h-20q-27 0 -212.5 1t-198.5 1q-29 0 -37 -2z" />
<glyph unicode="&#x3e;" horiz-adv-x="755" d="M82 51q21 9 43 27.5t33 32.5l12 14l231 313q14 16 32 33t29 26l11 9q-42 28 -67 63l-228 303q-55 70 -96 84h31q59 0 129.5 -23.5t109.5 -66.5l271 -319l39 -41q-30 -27 -46 -45l-272 -322q-36 -43 -103.5 -65.5t-127.5 -22.5h-31z" />
<glyph unicode="?" horiz-adv-x="841" d="M72 84q0 44 32 76.5t78 32.5q44 0 76.5 -32.5t32.5 -76.5q0 -46 -32.5 -78.5t-76.5 -32.5q-46 0 -78 32.5t-32 78.5zM117 463q0 21 2 31q13 67 50 131.5t86 118t105 106t109.5 103.5t97.5 102t70.5 110t26.5 119q0 156 -177 156q-62 0 -116 -45.5t-54 -124.5 q0 -6 1 -17.5t1 -17.5q-37 -43 -96 -43q-47 0 -68.5 25t-21.5 59q0 81 57.5 144.5t143.5 94.5t180 31q152 0 234.5 -85t82.5 -222q0 -76 -32.5 -150t-84.5 -135.5t-114.5 -121t-125.5 -114t-115 -105.5t-84.5 -105.5t-32.5 -104.5q0 -42 30 -69l-45 -23q-110 58 -110 152z " />
<glyph unicode="@" horiz-adv-x="1847" d="M94 350q0 200 78.5 385.5t208 319t303 213.5t356.5 80q153 0 283 -51t219 -140.5t139 -213.5t50 -267t-34.5 -265.5t-90.5 -206t-127 -143t-143.5 -87t-141.5 -27.5h2q-122 0 -169.5 52.5t-47.5 143.5q0 47 16 103q-28 -60 -70 -118.5t-106.5 -106.5t-126.5 -48 q-71 0 -123 49t-77 124t-25 163q0 201 87 369.5t237.5 266t330.5 97.5q96 0 195 -30q-35 -94 -90.5 -375.5t-75.5 -474.5q0 -62 19 -90.5t75 -28.5q52 0 111 37.5t114.5 107.5t92 187.5t36.5 259.5q0 163 -77.5 299.5t-215 216.5t-305.5 80q-153 0 -292.5 -67.5t-240.5 -182 t-160.5 -274t-59.5 -336.5q0 -254 129 -426.5t348 -212.5q14 -4 49 -4q59 0 80 12q-43 -121 -199 -121q-95 0 -182.5 40.5t-155.5 111t-118.5 162.5t-77.5 199.5t-27 217.5zM655 346q0 -225 125 -225q49 0 107.5 62t101.5 134l135 627q-12 2 -34 2q-87 0 -165.5 -42.5 t-138.5 -118.5t-95.5 -190t-35.5 -249z" />
<glyph unicode="A" horiz-adv-x="1124" d="M-111 0l678 1221q20 40 43.5 69.5t44 45.5t47 27.5t43.5 15.5t44 8.5t38 7.5q0 -67 15 -174l151 -1057q6 -79 37 -164h-231q1 10 -0.5 34.5t-1.5 35.5q-44 314 -58 401h-456l-238 -444q-3 -6 -10 -27h-146zM338 569h391q-13 86 -34 233.5t-35 240.5t-19 110z" />
<glyph unicode="B" horiz-adv-x="1075" d="M94 0l29 139l180 946q14 80 14 127q0 16 -1 29t-4.5 25t-5 17t-7.5 17t-6 13l20 35l357 10h20q81 0 144 -22t100 -59t55.5 -81.5t18.5 -93.5q0 -108 -67 -187t-187 -145q97 -32 159 -106.5t62 -184.5q0 -113 -44 -204.5t-121 -151t-179 -91.5t-219 -32h-318zM319 98h130 q74 0 133.5 21.5t96.5 56t61.5 80t34 90t9.5 90.5q0 123 -73.5 190t-196.5 72l-84 4q-71 -351 -111 -604zM451 797h106q61 0 131 -13q54 42 96.5 114.5t42.5 168.5q1 84 -51 132q-49 46 -127 46h-6l-98 -2q-39 -167 -94 -446z" />
<glyph unicode="C" horiz-adv-x="1257" d="M111 489q0 197 62.5 364t169 279.5t249 176t301.5 63.5q128 0 232 -50t126 -120q-7 -36 -58 -100.5t-103 -85.5l-29 26q2 6 2 19q0 26 -12 56.5t-35.5 61t-68.5 50.5t-103 20q-123 0 -223 -63.5t-161 -165.5t-93.5 -223t-32.5 -244q0 -94 20 -172t61 -139t108.5 -95 t156.5 -34q98 0 213.5 52t183.5 146q2 -4 2 -18q0 -91 -77 -166t-194 -114.5t-243 -39.5q-115 0 -203.5 39.5t-142.5 110t-81 163t-27 203.5z" />
<glyph unicode="D" horiz-adv-x="1337" d="M84 0q3 11 5.5 23t4.5 22.5t4.5 21t4.5 20t3.5 18t2.5 14.5t2 11t1 7l1 2l176 930q18 101 18 141q0 64 -24 103l22 35l457 10q104 0 194.5 -33t159.5 -95.5t108.5 -160.5t39.5 -221q0 -145 -40 -277.5t-111.5 -235t-165.5 -179t-206.5 -116.5t-230.5 -40h-426zM313 109 h242q78 0 162.5 49.5t155.5 133.5t117 211.5t46 268.5q0 206 -104 338.5t-270 132.5h-15l-115 -4q-9 -46 -56.5 -284.5t-95 -482t-67.5 -363.5z" />
<glyph unicode="E" horiz-adv-x="1003" d="M84 0l27 139l180 946q8 39 11.5 71t4.5 52t-2 39t-5.5 27t-8 22t-6.5 17l18 35h301l346 6q19 -29 19 -80q1 -20 -3 -44q-10 -84 -34 -104h-39q0 46 -52.5 78t-135.5 35l-170 6q-51 -197 -109 -499h315q27 0 46.5 6t25.5 13l6 7q2 -16 -2 -41q-5 -24 -15.5 -42.5 t-21.5 -30t-30.5 -20t-32 -12.5t-36 -6t-34 -2h-33.5q-2 0 -50 1q-46 1 -88 2q-21 0 -40.5 0.5t-36.5 -0.5q-55 -285 -84 -480v-12h381q28 0 48.5 6.5t27.5 13.5l6 7q0 -16 -4 -41q-6 -28 -17.5 -48.5t-30.5 -32.5t-35.5 -19.5t-42 -10.5t-39.5 -3.5t-38 -0.5h-487z" />
<glyph unicode="F" horiz-adv-x="962" d="M84 0l27 139l180 946q8 39 11.5 71t4.5 52t-2 39t-5.5 27t-8 22t-6.5 17l18 35h303l346 6q18 -29 18 -80q0 -20 -3 -44q-10 -84 -33 -104h-39q0 46 -52.5 78t-135.5 35l-172 6q-51 -197 -109 -499h315q27 0 46.5 6t25.5 13l6 7q2 -16 -2 -41q-5 -24 -15.5 -42.5 t-21.5 -30t-30.5 -20t-32 -12.5t-36 -6t-34 -2h-33.5q-2 0 -50 1q-46 1 -88 2q-21 0 -40.5 0.5t-36.5 -0.5q-55 -285 -84 -480q-1 -3 -4.5 -26.5t-6.5 -58t-1 -56.5h-219z" />
<glyph unicode="G" horiz-adv-x="1308" d="M111 498q0 195 62.5 360.5t169.5 277t249 174t301 62.5h2q128 0 232 -50t126 -120q-7 -36 -58 -100.5t-103 -85.5l-29 26q2 6 2 19q0 26 -12 56.5t-36 61t-69 50.5t-104 20q-75 0 -148 -28t-138.5 -85.5t-115.5 -138.5t-79 -196t-29 -248q0 -214 98.5 -332.5 t241.5 -118.5q29 0 76.5 8t80.5 16l33 7l31 158q14 77 14 125q0 20 -2.5 37t-5 25t-8 21t-6.5 17l18 35q68 27 144 27q61 0 110 -25q-4 -18 -25 -106t-32 -136.5t-26.5 -127t-24.5 -140.5q-40 -3 -125 -21t-187.5 -33.5t-203.5 -15.5q-186 0 -305 143.5t-119 381.5z" />
<glyph unicode="H" horiz-adv-x="1474" d="M115 0q15 63 211 1087q14 80 14 127q0 13 -1 25t-2.5 19.5t-4.5 17.5t-4.5 13t-5.5 12.5t-5 11.5l19 35q69 26 145 26q62 0 109 -24q-45 -186 -137 -615h677q16 88 35.5 187t28 142.5t14.5 84.5t6 65q0 13 -1 25t-2.5 20t-4.5 17t-5 13t-6 12.5t-5 11.5l20 35 q66 26 142 26q63 0 110 -24q-136 -611 -172 -809q-84 -416 -84 -521l2 -20h-215q0 25 1 39t4 32t11.5 58t19.5 93t33 163t48 244h-676l-16 -88q-5 -26 -21.5 -113.5t-24 -128.5t-18.5 -105t-15.5 -104t-4.5 -65l2 -25h-221z" />
<glyph unicode="I" d="M100 0q22 96 213 1090q15 86 15 127q0 19 -3 36.5t-5 23.5t-10 22l-7 16l21 35q67 26 145 26q62 0 109 -24q-119 -515 -175 -811q-84 -438 -84 -521q0 -6 1.5 -12.5t1.5 -7.5h-222z" />
<glyph unicode="J" horiz-adv-x="649" d="M-379 -274q0 44 32.5 77t82.5 33q20 0 41 -6q0 -84 88 -84q113 0 177 92.5t101 288.5q173 916 179 963q14 100 14 127q0 19 -3 36.5t-5 23.5t-10 22l-7 16l23 35q65 26 141 26q64 0 111 -24q-114 -491 -174 -811q-4 -21 -40.5 -217t-37.5 -203q-20 -99 -65 -183.5 t-103.5 -143.5t-128 -100.5t-139.5 -61t-138 -19.5t-103.5 33t-35.5 80z" />
<glyph unicode="K" horiz-adv-x="1124" d="M76 0q33 141 213 1090q3 12 8.5 65t5.5 62q0 16 -1.5 28.5t-4.5 23.5t-5 16.5t-7 16.5t-6 13l20 35q67 26 143 26q62 0 109 -24q-76 -326 -141 -639l503 467q66 60 66 112q0 7 -4 23l20 35q59 22 140 22q91 0 108 -20q-20 -27 -37 -48t-33 -40t-45 -46.5t-53.5 -50.5 t-78.5 -70t-99 -86t-137 -118.5t-172 -149.5q112 -206 261.5 -471t162.5 -272h-258q-57 136 -153 323t-165 289l-33 58l-24 -129q-84 -438 -84 -521q0 -4 1 -11.5t1 -8.5h-221z" />
<glyph unicode="L" horiz-adv-x="860" d="M82 0q11 45 213 1090q5 26 8 49t4 41t2 32t-1 27t-2.5 20.5t-4.5 18t-5 13.5t-5.5 12.5t-5.5 11.5l18 35q70 26 146 26q61 0 108 -24q-134 -602 -172 -811q-58 -284 -78 -428h232q87 0 149.5 30.5t81.5 77.5h37q7 -12 7 -32q0 -29 -14 -77q-22 -81 -59 -112h-659z" />
<glyph unicode="M" horiz-adv-x="1763" d="M70 0l10 33q163 667 274 1204q-20 65 -39 78l21 35q76 26 133 26q79 0 117 -30q8 -144 91.5 -556t131.5 -589q609 1063 616 1075q7 13 16.5 23.5t23.5 18.5l24.5 14t31 10.5t32 7.5t37.5 6t37 4.5t42.5 4t42.5 3.5q-28 -122 -72 -336q-78 -383 -159 -911 q-11 -85 -11 -107v-14h-221l27 123q34 166 60.5 310.5t58 331.5t32.5 191q2 11 9 60.5t10 62.5l-68 -133l-497 -815l-88 -174l-60 18q-43 9 -72.5 39t-39.5 59.5t-11 57.5l-174 830q-5 22 -7.5 69.5t-2.5 48.5q-10 -73 -37 -212.5t-52 -256.5t-61 -285.5t-47 -218.5 q-12 -66 -12 -98v-8h-147z" />
<glyph unicode="N" horiz-adv-x="1474" d="M82 0l6 33q102 532 139 731l66 330q13 72 13 120v10q-2 50 -23 91l20 35q2 1 12 5t13.5 5t13.5 4.5t15 4.5t14.5 3t16 2t15 -1t15.5 -3q9 -14 45.5 -73.5t72.5 -116.5t164 -253t332 -505q15 -21 27 -53.5t17 -54.5l5 -23q5 86 13 129q4 30 127 674q13 67 13 117 q0 68 -24 104l21 35q39 24 104 24q61 0 86 -22q-137 -591 -207 -961q-43 -232 -63 -391h-111l-579 911q-52 90 -58 127q0 -38 -10 -90q-9 -47 -34 -158.5t-35 -164.5q-90 -486 -99 -625h-143z" />
<glyph unicode="O" horiz-adv-x="1368" d="M98 485q0 -235 111.5 -373.5t277.5 -138.5t314.5 68.5t256 186.5t170 285.5t62.5 356.5q0 234 -115 368t-303 134q-151 0 -291 -63.5t-247 -176t-171.5 -281.5t-64.5 -366zM322 545q0 176 65 339t171 262t220 99q127 0 206 -124t79 -316q0 -178 -65 -343.5t-171 -265.5 t-219 -100q-130 0 -208 128.5t-78 320.5z" />
<glyph unicode="P" horiz-adv-x="1050" d="M78 0l8 33q31 125 121 611t90 570q0 69 -18 99l20 35l363 12q58 0 111.5 -9.5t106.5 -33t92 -60t63 -95.5t24 -134q0 -119 -46.5 -217.5t-126 -163t-183 -100t-218.5 -35.5q-51 0 -104 12q-76 -423 -82 -524h-221zM401 633q37 -19 123 -19q145 0 245.5 106.5t100.5 274.5 q0 67 -21 117.5t-56.5 78.5t-75.5 41t-84 13l-109 -4q-19 -65 -62 -276t-61 -332z" />
<glyph unicode="Q" horiz-adv-x="1366" d="M98 485q0 197 64.5 366t171.5 281.5t247 176t291 63.5q188 0 304 -134t116 -368q0 -176 -54 -333t-148.5 -273t-225 -191t-280.5 -93q21 -10 55 -35q217 -168 455 -168q82 0 152.5 35t107.5 88q8 -36 8 -56q0 -100 -88.5 -165.5t-220.5 -65.5q-62 0 -135.5 32.5 t-143.5 82t-136 101t-134 97t-117 62.5q-130 38 -209.5 168.5t-79.5 328.5zM322 545q0 -192 78 -320.5t208 -128.5q113 0 219 100t171 265.5t65 343.5q0 192 -79 316t-206 124q-114 0 -220 -99t-171 -262t-65 -339z" />
<glyph unicode="R" horiz-adv-x="1155" d="M66 0l6 33q27 134 68.5 345.5t92 495.5t50.5 340q0 67 -19 99l21 35q371 10 385 10q71 0 134.5 -17.5t118.5 -54.5t88 -103.5t33 -154.5q0 -181 -102.5 -304t-271.5 -179q24 -13 185.5 -269.5t182.5 -275.5h-258q-14 43 -39 93.5t-64 112.5t-66 102.5t-76.5 111.5 t-63.5 92q-51 0 -104 12q-76 -423 -82 -524h-219zM387 633q37 -19 123 -19q146 0 246 106.5t100 274.5q0 68 -21 118.5t-57 78t-76 40.5t-84 13l-108 -4q-19 -65 -62 -276t-61 -332z" />
<glyph unicode="S" horiz-adv-x="925" d="M4 162q0 40 39 86q2 -29 43.5 -59.5t104.5 -51t124 -20.5q50 0 97.5 10.5t93.5 34.5t74 69.5t28 108.5q0 46 -24.5 90.5t-63.5 82t-86 76t-94 80t-86 85.5t-63.5 100.5t-24.5 118.5q0 167 124 286t322 119q63 0 121 -12t95.5 -29.5t60 -36t22.5 -32.5q0 -51 -20 -112.5 t-57 -92.5l-35 8q-6 51 -31.5 91t-60.5 62t-69.5 33t-66.5 11q-36 0 -75 -13t-74.5 -37t-58.5 -65t-23 -90q0 -45 26 -88.5t68 -80.5t92 -75.5t100.5 -81t92.5 -88.5t68 -107.5t26 -129.5q0 -195 -147 -317t-367 -122q-122 0 -208.5 57t-86.5 132z" />
<glyph unicode="T" horiz-adv-x="993" d="M68 1126h38q15 47 79.5 78t152.5 31h151q-4 -82 -20 -156q-93 -515 -199 -1046l-6 -33h219q0 62 6 90q22 126 76.5 406t99.5 506.5t46 232.5h153q88 0 142 -31.5t51 -77.5h37q11 12 23 52.5t12 94.5t-23 87l-279 -12h-407l-275 12q-53 -46 -71 -128q-11 -49 -11 -78 q0 -19 5 -28z" />
<glyph unicode="U" horiz-adv-x="1357" d="M139 301q0 41 11 127q63 394 114 662q15 86 15 127q0 13 -1 25t-2.5 19.5t-4.5 17t-4.5 13t-5.5 12.5t-5 11l20 35q68 26 144 26q63 0 110 -24q-63 -272 -180 -897q-12 -62 -12 -109q0 -58 17 -102t42 -69t60.5 -40.5t66.5 -20.5t66 -5q147 0 262 79.5t143 194.5 q21 67 144 711q14 71 14 120q0 62 -25 101l23 35q34 24 104 24q61 0 86 -22q-105 -431 -192 -908q-40 -205 -202.5 -339t-399.5 -134q-75 0 -135 9.5t-112 32.5t-87 60t-54.5 94.5t-19.5 133.5z" />
<glyph unicode="V" horiz-adv-x="1216" d="M137 1313q8 -3 21 -23.5t34 -92.5t35 -179l144 -887q5 -129 116 -156l70 -18l88 174l567 944q35 56 73 136.5t52 136.5q-35 28 -98 28q-66 0 -129 -26l-20 -35q24 -35 24 -78q0 -70 -59 -172l-408 -713q-18 -31 -36.5 -67.5t-28.5 -59.5t-9 -24q-38 152 -102 569.5 t-68 568.5q-27 37 -102 37q-77 0 -143 -28z" />
<glyph unicode="W" horiz-adv-x="1785" d="M137 1313q8 -3 21 -23.5t34 -92.5t35 -179l113 -887q1 -29 9.5 -57.5t36.5 -59t71 -39.5l69 -18l88 174l312 561l71 -561q1 -29 9.5 -57.5t36.5 -59t71 -39.5l70 -18l90 174l530 944q31 54 69.5 135t55.5 138q-42 20 -112 20q-69 0 -115 -20l-21 -35q25 -33 25 -78 q0 -17 -4 -37q-11 -60 -55 -133l-371 -713q-18 -30 -36.5 -68t-27.5 -60l-10 -23q-33 136 -80.5 553.5t-52.5 584.5q-27 37 -104 37q-84 0 -150 -28l-20 -35q4 -2 10.5 -9t17 -28.5t21 -52t22 -84.5t19.5 -121l14 -121l-283 -545q-17 -30 -35 -68t-27 -60l-9 -23 q-34 135 -82 552t-53 586q-27 37 -105 37q-81 0 -147 -28z" />
<glyph unicode="X" horiz-adv-x="1097" d="M-78 0l90 100l453 559l-123 361q-8 25 -20 60t-17.5 52t-13.5 41t-12.5 34.5t-11 26.5t-11 23t-11 17t-13 15.5t-14 11.5t-17.5 12l20 35q68 28 141 28q80 0 107 -37q4 -17 16 -65t18 -68.5t22 -73.5t41 -125t63 -178q28 41 57 78l137 174q2 3 6 8q78 96 90 147q1 2 1 5 q3 15 3 28q0 26 -12 44l21 35q54 28 119 28q69 0 108 -28q-21 -57 -76 -136t-112 -145l-301 -354l207 -592q10 -31 27.5 -61.5t29.5 -45.5l12 -14h-256l-182 537q-51 -72 -78 -103l-264 -323q-19 -25 -36 -53t-24 -43l-8 -15h-176z" />
<glyph unicode="Y" horiz-adv-x="890" d="M61 1313l21 35q65 28 141 28q64 0 94 -37q25 -117 85 -309t96 -276q30 41 59 80l225 301q47 65 47 122q0 29 -12 56l21 35q67 28 118 28q50 0 101 -28q-7 -36 -64 -129t-106 -152l-324 -405q-39 -195 -59 -310q-47 -241 -53 -352h-220l7 33q58 286 69 350q30 157 43 233 q-15 18 -31 64l-116 344q-16 42 -32 90t-24 71.5t-18.5 49t-19 37.5t-20 23t-28.5 18z" />
<glyph unicode="Z" horiz-adv-x="1241" d="M-51 0l2 41q49 45 65 63l865 1057l73 70h-452q-88 0 -153.5 -31t-80.5 -78h-37q-2 4 -2 27q0 50 19.5 113.5t60.5 101.5l275 -12h684l-2 -43q-48 -46 -64 -66l-856 -1044l-72 -66h506q88 0 153.5 31t80.5 78h39q4 -8 4 -27q0 -49 -21 -113t-63 -102h-1024z" />
<glyph unicode="[" horiz-adv-x="507" d="M-119 -319l352 1818h318l-21 -100h-190l-311 -1616h190l-22 -102h-316z" />
<glyph unicode="\" horiz-adv-x="729" d="M-10 1337q0 -24 9 -56.5t22.5 -69t15.5 -42.5q469 -1426 526 -1669h162q-247 729 -399 1243.5t-152 597.5q-9 14 -55.5 32t-85.5 18q-43 0 -43 -54z" />
<glyph unicode="]" horiz-adv-x="509" d="M-41 -319l18 102h189l317 1616h-190l18 100h318l-355 -1818h-315z" />
<glyph unicode="^" horiz-adv-x="1277" d="M145 655q103 180 211.5 379t165.5 308l58 108h114q405 -746 434 -795h-143q-98 180 -185 337.5t-125 224.5l-38 67q-127 -233 -348 -629h-144z" />
<glyph unicode="_" horiz-adv-x="921" d="M0 -154h983l-61 -122h-922v122z" />
<glyph unicode="`" horiz-adv-x="692" d="M186 1483l54 -140q72 -186 235 -186q23 0 51.5 13.5t30.5 19.5q-49 16 -80.5 52.5t-46 76.5t-28 77.5t-36.5 62t-61 24.5h-119z" />
<glyph unicode="a" horiz-adv-x="1038" d="M82 299q0 195 74 366t204 274t283 103q40 0 154 -19t159 -22l-51 -256q-3 -18 -8.5 -46t-25 -126t-44.5 -225q-14 -110 -14 -153q0 -97 78 -97q12 0 24.5 2t18.5 4l6 2l14 -36q-13 -11 -35.5 -27t-79.5 -43t-100 -27q-55 0 -84 31t-31 79q-1 13 -1 26q1 35 5 65 q6 42 19 80q-65 -120 -164.5 -200.5t-187.5 -80.5q-87 0 -150 85t-63 241zM270 322q0 -103 37 -152t92 -49q54 0 120.5 59.5t123.5 132.5q99 422 109 594q-88 25 -160 25q-82 0 -156.5 -84.5t-120 -226.5t-45.5 -299z" />
<glyph unicode="b" horiz-adv-x="1067" d="M121 156q0 55 98 558t103 560q4 40 4 67q0 114 -64 117l8 37q9 6 24 14.5t59.5 22.5t86.5 14q56 0 79.5 -23.5t23.5 -74.5q-1 -71 -49 -281t-101 -393q78 121 189 194.5t209 73.5q204 0 204 -350q0 -95 -22.5 -193.5t-70.5 -193t-114 -168.5t-161.5 -119t-204.5 -45 q-133 0 -217 46.5t-84 136.5zM319 215q0 -64 31 -96.5t115 -32.5q74 0 133.5 37.5t97.5 97t64 137.5t36.5 155.5t10.5 154.5q0 237 -123 237q-57 0 -144 -63t-153 -148q-31 -176 -61 -389q-7 -58 -7 -90z" />
<glyph unicode="c" horiz-adv-x="944" d="M82 373q0 164 69 316.5t193 250.5t268 98q123 0 212 -41.5t89 -119.5q-1 -67 -59 -103q-28 -17 -56 -17q-31 0 -63 21q0 67 -31.5 106.5t-115.5 39.5q-86 0 -160 -78.5t-114 -194t-40 -231.5q0 -126 59 -208.5t177 -82.5q84 0 169.5 47.5t156.5 132.5v-11q0 -80 -58 -154 q-62 -78 -161.5 -124.5t-204.5 -46.5q-140 0 -235 109t-95 291z" />
<glyph unicode="d" horiz-adv-x="1062" d="M72 324q0 93 22 191t69 192t112 167.5t158.5 118.5t201.5 45q39 0 92.5 -9.5t77.5 -20.5l47 266q5 36 7 76v9q0 36 -15 65q-17 33 -51 34l8 37q9 6 24 14.5t59.5 22.5t86.5 14q35 0 57.5 -11.5t32 -27t11.5 -43.5q1 -12 1 -24q1 -14 -1 -25q-2 -21 -9 -55 q-3 -22 -52.5 -247.5t-56.5 -264.5q-104 -547 -104 -647q0 -103 72 -103q21 0 53 8l14 -36q-48 -36 -110 -66.5t-111 -30.5q-119 0 -119 166q0 26 4 66v8q-79 -111 -175.5 -175.5t-186.5 -64.5q-103 0 -161 88.5t-58 262.5zM260 342q0 -231 117 -231q56 0 142.5 59.5 t152.5 140.5q10 55 31 158t24 119l59 319q-53 25 -172 25q-76 0 -138.5 -38.5t-101.5 -99t-65.5 -140.5t-37.5 -157.5t-11 -154.5z" />
<glyph unicode="e" horiz-adv-x="940" d="M84 379q3 134 49.5 258t119.5 210.5t165.5 138.5t185.5 52q134 0 202 -58q66 -57 66 -153v-6q-2 -106 -82.5 -186.5t-205 -121t-269.5 -40.5h-41q-4 -32 -4 -53v-6q0 -68 22 -130q22 -64 75 -109.5t127 -45.5q85 0 175 48t160 132v-11q0 -80 -58 -154 q-62 -78 -161 -124.5t-204 -46.5q-141 -1 -233 109q-89 106 -89 285v12zM285 547q61 5 108 12.5t103 26t93 46t62.5 74.5t26.5 109v7q0 39 -22 69q-24 33 -81 33q-54 0 -105 -36t-87.5 -93t-61.5 -121.5t-36 -126.5z" />
<glyph unicode="f" horiz-adv-x="655" d="M117 0h198q0 63 4 86q91 563 142 801q5 0 70.5 -1t80.5 -1q170 0 174 145l-2 -2q-3 -3 -8 -6t-13 -6t-21 -5.5t-29 -2.5h-240q8 16 12 47q30 204 80.5 284t136.5 80q41 0 65 -22t24 -56q27 -12 57 -12q38 2 64 26.5t26 65.5q0 57 -48.5 91t-119.5 34q-43 0 -87 -11.5 t-94 -41.5t-94 -76t-85 -121t-68 -170q-32 -114 -129 -122l-20 -62q67 -32 67 -135q0 -46 -10 -94l-125 -662q-4 -16 -8 -51z" />
<glyph unicode="g" horiz-adv-x="1003" d="M-74 -315q0 17 5.5 37t17.5 43t37.5 38t60.5 15q59 0 78 -43q-23 -48 -23 -80q0 -62 62.5 -93.5t157.5 -31.5q77 0 134 22t87.5 54t48 79.5t22 86.5t4.5 88q0 42 -7 111t-7 124q0 27 4 39q-45 -90 -133 -145.5t-170 -55.5q-77 0 -128 45t-72 117t-21 168q2 118 41.5 246 t105 237.5t164.5 180.5t209 71q41 0 167.5 -17t168.5 -20l-51 -256q-3 -14 -10 -47t-25 -124t-45 -226q-14 -110 -14 -153l14 -281q0 -91 -30.5 -165t-81 -122.5t-118.5 -82t-139.5 -48t-146.5 -14.5q-155 0 -261 54.5t-106 148.5zM276 332q0 -211 117 -211q65 0 121.5 31.5 t89.5 66.5q37 157 74 371.5t43 310.5q-67 27 -139 27q-76 0 -148.5 -99.5t-114.5 -237.5t-43 -259z" />
<glyph unicode="h" horiz-adv-x="1099" d="M82 0l4 31q87 438 162.5 858t75.5 454q0 107 -68 115l10 37q9 6 24 14.5t60 22.5t88 14q53 0 75 -22.5t22 -69.5q0 -43 -23.5 -149.5t-61 -264.5t-57.5 -270q30 43 74 87t100.5 87t124 70.5t129.5 27.5q72 0 124 -51.5t52 -144.5q0 -46 -33.5 -214.5t-67.5 -354.5 q-33 -181 -32 -272v-5h-194q0 12 14 98q91 462 107 598q4 46 4 64q0 121 -93 121q-83 0 -174 -60.5t-149 -138.5q-32 -180 -65 -401.5t-35 -260.5v-20h-197z" />
<glyph unicode="i" horiz-adv-x="542" d="M92 0l2 8q150 784 150 817q1 36 -15 55t-41 19q-10 0 -16 -2l-18 33q35 41 97 72.5t120 31.5q39 0 58 -27q17 -24 17 -61v-8q0 -26 -22 -118t-23 -95q-7 -36 -22.5 -128.5t-37 -225t-36.5 -217.5q-12 -64 -12 -117q0 -25 -2 -37h-199zM297 1313q0 43 32.5 74.5t76.5 31.5 q43 0 73.5 -31.5t30.5 -74.5q-2 -43 -34.5 -77t-74.5 -34q-44 0 -75 34q-29 32 -29 72v5z" />
<glyph unicode="j" horiz-adv-x="542" d="M-229 -453q34 -57 92 -57q43 0 104.5 39t120.5 101.5t108 153t66 181.5l139 737q7 36 19.5 91.5t19 89.5t6.5 59q0 48 -19.5 70t-72.5 22q-49 0 -110 -35.5t-90 -68.5l18 -33q6 2 16 2q54 0 54 -68q3 -16 -156 -860q-19 -94 -67.5 -190.5t-116.5 -164.5t-131 -69z M303 1313q0 43 32.5 74.5t76.5 31.5q43 0 73.5 -31.5t30.5 -74.5t-33.5 -77t-74.5 -34q-45 0 -75 33.5t-30 77.5z" />
<glyph unicode="k" horiz-adv-x="1003" d="M82 0l6 31l234 1243q8 39 8 74q0 101 -68 110l8 37q9 6 24 14.5t59.5 22.5t86.5 14q56 0 79.5 -24t23.5 -76q0 -17 -39.5 -209.5t-83.5 -400t-49 -238.5q196 46 299.5 117.5t103.5 132.5q0 51 -80 51q-10 0 -16 -2l-19 33q33 40 96 72t122 32q73 0 73 -73 q0 -248 -409 -369q24 -12 51.5 -68.5t55.5 -126t62.5 -138.5t86 -115t112.5 -46q30 0 62 8l14 -36q-36 -31 -104 -64t-119 -33t-96 35.5t-76 90.5t-62 124.5t-54.5 133t-52 121.5t-54.5 85q-26 -131 -47 -264t-30 -207t-9 -92h-199z" />
<glyph unicode="l" horiz-adv-x="520" d="M82 0l4 31l236 1243q7 40 7 72q-1 36 -9 60q-16 46 -60 52l10 37q9 6 24 14.5t59.5 22.5t86.5 14q33 0 55 -8.5t32 -29.5t13 -44q1 -7 1 -17q-1 -19 -5 -49q-6 -44 -14.5 -81.5t-25.5 -102.5q-49 -207 -116 -572t-95 -556q-4 -23 -4 -86h-199z" />
<glyph unicode="m" horiz-adv-x="1697" d="M82 0v8l147 770q3 16 3 31q0 26 -8 51q-14 39 -46 39q-10 0 -16 -2l-19 33q33 41 95.5 72.5t121.5 31.5q39 0 57.5 -26.5t18.5 -69.5q0 -52 -33 -168q30 43 74 87t100 87t123 70.5t129 27.5q75 0 129 -58q47 -52 47 -140q0 -11 -1 -23q-4 -20 -7 -47q44 60 104 116.5 t148.5 104t169.5 47.5q75 0 128 -58q47 -52 47 -139q0 -12 -1 -24q-3 -37 -36 -205t-64 -349t-31 -267h-194q0 12 14 98q93 486 107 598q4 34 4 62q0 48 -12 78q-19 46 -78 45q-82 0 -172 -58t-150 -135q-6 -30 -25 -128.5t-30 -159.5t-25.5 -145.5t-21.5 -148t-7 -106.5 h-194q0 12 14 98q93 486 107 598q4 34 4 62q0 48 -12 78q-19 46 -78 45q-84 0 -176 -60.5t-150 -138.5q-5 -32 -39 -219.5t-55 -308.5q-9 -64 -12 -117v-37h-199z" />
<glyph unicode="n" horiz-adv-x="1107" d="M82 0v8l147 770q3 16 3 31q0 26 -8 51q-14 39 -46 39q-10 0 -16 -2l-19 33q33 41 95.5 72.5t121.5 31.5q39 0 57.5 -26.5t18.5 -69.5q0 -52 -33 -168q30 43 74 87t100 87t123 70.5t129 27.5q75 0 129 -58q47 -52 47 -140q0 -11 -1 -23q-3 -37 -36.5 -205t-64.5 -349 t-31 -267h-194q0 12 14 98q93 486 107 598q4 34 4 62q0 48 -12 78q-19 46 -78 45q-84 0 -176 -60.5t-150 -138.5q-5 -32 -39 -219.5t-55 -308.5q-9 -64 -12 -117v-37h-199z" />
<glyph unicode="o" horiz-adv-x="1030" d="M84 369v-15q0 -45 5 -86q6 -48 25.5 -104t51.5 -96.5t89.5 -67.5t133.5 -27q155 0 283.5 96t200 250t73.5 328v13q0 174 -82 274q-84 104 -223 104q-112 0 -213.5 -50.5t-176.5 -138.5t-120 -213t-47 -267zM281 403q1 44 8 102.5t26.5 136t48 141t78.5 107.5t113 44 q94 0 145 -89q48 -84 48 -223v-16q-1 -224 -90 -378t-201 -154q-87 0 -133 90q-43 84 -43 221v18z" />
<glyph unicode="p" horiz-adv-x="1087" d="M-12 -492q68 334 88 457l155 826q2 10 2 28q0 37 -17.5 58.5t-41.5 21.5q-8 0 -14 -2l-19 33q4 4 11.5 11t30 25t45.5 32t55 25t61 11q41 0 60.5 -25.5t19.5 -64.5q0 -15 -7 -49.5t-16.5 -73t-11.5 -47.5q70 103 179 185.5t212 82.5q213 0 213 -352q0 -95 -22 -193.5 t-68.5 -192.5t-111.5 -167.5t-158 -118.5t-201 -45q-67 0 -172 33q-12 -76 -33.5 -206.5t-32 -199t-10.5 -92.5h-196zM281 115h2q79 -29 172 -29q83 0 149 47t102 113t60 145.5t31.5 134.5t7.5 90q0 47 -1.5 81.5t-6 69.5t-13.5 58.5t-23 42.5t-35.5 28t-49.5 9 q-59 0 -146.5 -70.5t-144.5 -138.5q-10 -55 -33.5 -190.5t-50.5 -280.5z" />
<glyph unicode="q" horiz-adv-x="1071" d="M82 324q0 95 22.5 193.5t70.5 192.5t114 168t161.5 119t204.5 45q99 0 213.5 -21t128.5 -22q-31 -150 -83.5 -418t-116 -629.5t-64.5 -449.5h-198q13 62 54.5 283.5t59.5 314.5q7 38 35 142q-80 -123 -183.5 -196t-199.5 -73q-103 0 -161 88.5t-58 262.5zM270 342 q0 -231 117 -231q58 0 148 63.5t155 147.5q15 81 34 173.5t28.5 139.5t21 118.5t21.5 153.5q-64 23 -183 23q-75 0 -135 -38.5t-98 -98.5t-63.5 -139.5t-35.5 -157t-10 -154.5z" />
<glyph unicode="r" horiz-adv-x="802" d="M82 0q85 419 139 698q12 59 12 119q0 82 -55 82q-4 0 -9 -1l-5 -1l-19 33q28 37 92 70.5t111 33.5q90 0 90 -88q0 -36 -16 -90q-39 -88 -51 -166q11 28 32 67.5t58.5 90.5t79.5 93t98.5 71.5t112.5 29.5q60 0 87 -27t27 -67q0 -53 -38.5 -89.5t-92.5 -51.5q-9 36 -33 54 t-55 18q-55 0 -105 -43t-84.5 -104t-63.5 -140t-44.5 -137.5t-25.5 -110.5q-43 -231 -43 -344h-199z" />
<glyph unicode="s" horiz-adv-x="808" d="M43 156q-1 5 -1 11q0 45 40 89q1 -58 80 -111t164 -53q37 0 69 8.5t59.5 27t43.5 52t16 78.5q0 37 -28 70t-69.5 57.5t-90 56.5t-90 65t-69.5 86.5t-28 117.5q0 134 108 230.5t259 96.5q116 0 189 -44.5t73 -116.5q0 -44 -30.5 -79.5t-73.5 -35.5q-28 0 -56 22q6 27 6 54 q0 46 -29.5 74t-107.5 28q-75 0 -126.5 -46.5t-51.5 -115.5q0 -37 22 -68.5t57.5 -56t78.5 -48.5t85.5 -51.5t78 -59.5t57.5 -78t22 -101q0 -83 -34 -149.5t-91 -107.5t-126.5 -63t-145.5 -22q-68 0 -128 26t-93.5 66.5t-38.5 90.5z" />
<glyph unicode="t" horiz-adv-x="763" d="M193 506q59 248 61 328q0 31 -6 43q-6 13 -14 24.5t-15.5 18.5t-15 12t-13.5 7.5t-11 4t-7 2.5h-2l23 62q7 0 14 0.5t30.5 9.5t47 25t59.5 51t72 84h96l-55 -170h241q26 0 44.5 6t23.5 12l6 6q0 -2 1 -7t1 -7q0 -62 -52.5 -98.5t-125.5 -36.5q-18 0 -66 2t-67 2 q-23 0 -29 -2q-1 -36 -55 -286.5t-55 -336.5v-8q0 -55 27 -84q29 -31 100 -31q54 0 120.5 36.5t92.5 64.5q0 -2 0.5 -6t0.5 -7t-1 -6q-1 -70 -50.5 -128.5t-121 -89t-144.5 -30.5q-94 0 -155 52q-60 51 -60 148q0 80 60 333z" />
<glyph unicode="u" horiz-adv-x="1128" d="M119 166q0 40 46.5 276.5t59.5 335.5q2 8 2 27q0 40 -13 67t-40 27q-10 0 -16 -2l-19 33q33 41 95.5 72.5t121.5 31.5q39 0 57.5 -26.5t18.5 -69.5q0 -54 -26 -168q-15 -73 -44 -195t-43 -195t-14 -124q0 -63 24.5 -95t80.5 -32q83 0 175 60.5t150 138.5q5 30 34.5 190 t47.5 268v19q0 94 -51 94q-10 0 -16 -2l-19 33q33 41 95.5 72.5t121.5 31.5q39 0 57.5 -26.5t18.5 -69.5q0 -66 -29 -168l-100 -539q-4 -32 -4 -45q0 -48 23.5 -68t56.5 -20q25 0 45 8l14 -36q-43 -37 -112.5 -67t-114.5 -30q-113 0 -113 121q0 65 29 146q-30 -43 -74 -87.5 t-100 -87.5t-123 -70.5t-129 -27.5q-71 0 -122.5 53t-51.5 146z" />
<glyph unicode="v" horiz-adv-x="901" d="M37 934q43 41 96.5 70.5t99.5 29.5q51 0 73 -28t22 -97q0 -66 82 -600q16 -92 32 -137q121 162 222.5 365.5t101.5 304.5q0 49 -23 89t-67 50q26 45 102 45q123 0 123 -129q0 -90 -51.5 -214.5t-110.5 -227.5q-83 -142 -237 -363l-80 -147l-57 18q-30 6 -52.5 23.5 t-34 41t-16.5 44t-6 39.5l-80 587q-6 46 -15.5 82t-19 57t-22 35t-20.5 20t-19.5 7.5t-14 1l-7.5 -1.5h-1z" />
<glyph unicode="w" horiz-adv-x="1513" d="M37 934q43 41 96.5 70.5t99.5 29.5q51 0 73 -28t22 -97q0 -66 82 -600q16 -92 32 -137q112 151 210 341t112 300q-33 88 -80 88q-6 0 -13 -2h-1l-21 35q43 41 97 70.5t100 29.5q51 0 72.5 -28t21.5 -97q0 -66 82 -600q15 -87 33 -137q121 161 222 365t101 305 q0 49 -23 89t-67 50q26 45 103 45q122 0 122 -129q0 -90 -51.5 -215t-109.5 -227q-78 -134 -238 -363l-80 -147l-57 18q-30 6 -52.5 23.5t-34 41t-16.5 44t-6 39.5l-63 469q-24 -48 -66 -125q-83 -142 -237 -363l-80 -147l-57 18q-30 6 -52.5 23.5t-34 41t-16.5 44t-6 39.5 l-80 587q-6 46 -15.5 82t-19 57t-22 35t-20.5 20t-19.5 7.5t-14 1l-7.5 -1.5h-1z" />
<glyph unicode="x" horiz-adv-x="960" d="M-76 0l465 481l-90 207q-21 43 -40 88.5t-26.5 64t-18.5 36t-23 22t-33 4.5q-17 0 -27 -2l-20 33q2 2 24.5 23.5t32.5 29t32 22t43 20t44 5.5q19 0 33 -2.5t26 -11.5t19 -16.5t16 -26.5t14.5 -32.5t16.5 -43.5t20 -51l82 -197l16 -49q234 200 234 311q0 58 -43 93 q20 14 49 14q66 0 97.5 -36t31.5 -79q0 -55 -61.5 -132.5t-108 -118t-146.5 -120.5q-9 -8 -14 -12l183 -409l65 -115h-229l-23 76l-137 321q-10 -20 -33 -43l-254 -272l-61 -82h-156z" />
<glyph unicode="y" horiz-adv-x="921" d="M-240 -418q0 42 15 88q4 -25 43 -40t84 -15q183 0 432 358q-15 6 -26 17.5t-17.5 21t-11.5 26.5t-6.5 25t-4 26.5t-2.5 21.5l-86 587q-8 64 -22 108t-30.5 62.5t-29 25.5t-24.5 7l-13 -2l-20 35q42 40 99 70t104 30q51 0 72.5 -28t21.5 -97q-2 -70 82 -600q6 -50 45 -141 q120 192 215.5 385.5t95.5 288.5q0 49 -23 89t-67 50q26 45 102 45q123 0 123 -129q0 -90 -51.5 -215t-109.5 -227q-60 -103 -119 -200t-138 -218t-154 -219.5t-151.5 -184.5t-147 -134t-124.5 -48q-71 0 -113.5 36t-42.5 95z" />
<glyph unicode="z" horiz-adv-x="966" d="M-25 0h693q73 0 126 24t75 60q19 30 19 63q0 7 -1 13q-4 40 -35 73q-1 -11 -20.5 -29.5t-51.5 -37.5t-84 -33t-108 -14h-322q31 20 60 57l553 731q11 16 27.5 31.5t27.5 23.5l10 7l2 39h-639q-87 0 -133 -66q-24 -35 -24 -69q0 -16 5 -31q15 -48 73 -48q6 0 13 1h3 q0 3 4.5 12.5t15.5 24t26 27t40.5 21.5t54.5 9h277l-4 -3q-5 -4 -12 -9.5t-15 -13t-18 -18.5t-19 -22l-551 -723q-13 -16 -30 -31t-27 -23l-11 -7v-39z" />
<glyph unicode="{" horiz-adv-x="681" d="M96 -229q0 39 4 59q74 390 74 561q0 100 -20.5 140t-57.5 47l8 45q33 0 65.5 30t67.5 96t71 186.5t69 287.5q14 69 43.5 125.5t66.5 93.5t82 62t87.5 35.5t84.5 10.5q71 0 115 -47q-116 -1 -206 -91.5t-113 -227.5q-23 -139 -62 -257t-79.5 -189t-77.5 -111t-64 -43 q61 -79 61 -273q0 -117 -27.5 -321t-27.5 -244q0 -172 182 -172q18 0 54 4q-83 -80 -191 -80q-92 0 -150.5 81t-58.5 192z" />
<glyph unicode="|" horiz-adv-x="163" d="M0 -520v2068h164v-2068h-164z" />
<glyph unicode="}" horiz-adv-x="681" d="M-111 -422q53 -80 156 -80q101 0 191.5 92t115.5 240q33 186 67.5 324t64 215t62.5 124.5t56.5 63t52.5 21.5l9 45q-95 0 -95 190q0 34 22.5 205t22.5 258q0 128 -64 201t-155 73q-73 0 -135 -47q94 -1 142.5 -55.5t48.5 -155.5q0 -69 -18.5 -217.5t-18.5 -197.5 q0 -131 24.5 -207t59.5 -86q-4 -1 -10.5 -4.5t-27.5 -22t-42 -46t-51 -82.5t-57.5 -125t-58 -179.5t-56.5 -241.5q-27 -138 -53 -191q-66 -114 -203 -118q-14 0 -50 4z" />
<glyph unicode="~" horiz-adv-x="1079" d="M184 535q74 55 129 51q34 -2 125.5 -34t159.5 -36q99 -6 176 35.5t96 128.5q-83 -59 -151 -55q-36 4 -131 34t-146 33q-62 4 -114 -9.5t-92.5 -51t-51.5 -96.5z" />
<glyph horiz-adv-x="1024" />
<glyph unicode="&#xa1;" horiz-adv-x="540" d="M-15 -102q1 30 15.5 79t31.5 93.5t40.5 111.5t38.5 123l200 723l58 -12l-121 -987q-5 -55 -0.5 -87t13.5 -44l9 -13l-10 -47q-76 -45 -139 -45q-53 0 -84.5 11.5t-42 37.5t-9.5 56zM276 1255q0 46 32.5 78.5t76.5 32.5q46 0 78.5 -32.5t32.5 -78.5q0 -44 -32.5 -76 t-78.5 -32q-44 0 -76.5 32t-32.5 76z" />
<glyph unicode="&#xa2;" horiz-adv-x="958" d="M82 369q0 140 45 262t121.5 206.5t176 137t208.5 61.5q6 35 14.5 100t11.5 87q45 10 60 10q41 0 41 -41q0 -14 -3.5 -32.5t-11 -47t-10.5 -43.5l-6 -33q106 -9 167.5 -53t61.5 -113q0 -23 -14 -67q-25 39 -93.5 67t-150.5 31q-88 -429 -129 -637l-26 -135 q85 5 176.5 53.5t157.5 126.5q2 -8 2 -18q0 -70 -54 -135.5t-136 -109.5t-173 -62l-33 -207h-100q22 114 41 196h-4q-145 0 -242.5 105.5t-97.5 290.5zM283 418q0 -108 43 -184.5t131 -98.5q124 608 153 762q-124 -17 -206 -118.5t-111 -250.5q-10 -46 -10 -110z" />
<glyph unicode="&#xa3;" horiz-adv-x="1124" d="M74 551l12 133q0 4 137 4q0 21 0.5 86t1 80.5t2 60.5t4.5 66t8 54t13 65q11 47 28.5 92t47 97.5t73 96t99.5 80t134 57.5t169 21q62 0 125 -20t110 -63.5t47 -100.5q0 -67 -37.5 -102t-82.5 -35q-47 0 -80 30q1 0 3 5.5t3.5 16t1.5 21.5q0 48 -51 89.5t-135 41.5 q-111 0 -192 -97t-93 -230q-5 -51 -8 -102.5t-4.5 -81.5t-3.5 -109t-3 -123q132 -4 154 -4q219 0 259 7q19 4 26 9q-6 -34 -19.5 -59t-37.5 -39.5t-44.5 -23.5t-58.5 -12.5t-59 -4t-64 -0.5h-20h-142q-5 -163 -46.5 -381t-84.5 -280q238 -46 404 -46q174 0 314 31.5 t196 91.5q6 -27 6 -53q0 -219 -410 -219q-48 0 -103.5 4t-131.5 14.5t-130.5 19t-164 26t-168.5 26.5q59 129 96 343.5t47 424.5h-90q-25 0 -57 -8z" />
<glyph unicode="&#xa4;" horiz-adv-x="1200" d="M-14 444l43 131q28 -4 106 -4q5 65 31 162h-94q-29 0 -37 -2l43 131q42 -6 131 -6q102 236 301.5 376t441.5 140q120 0 204.5 -44t84.5 -91q0 -57 -57 -98q-5 40 -78.5 75t-202.5 35q-174 0 -318.5 -112.5t-213.5 -282.5h385q217 0 257 7q19 4 27 9q-9 -26 -21.5 -46.5 t-30.5 -34.5t-33 -24.5t-40.5 -16.5t-41 -10t-47 -5.5t-45.5 -1.5h-48h-20h-379q-20 -90 -23 -164h267q227 0 270 10q13 3 20 7q-11 -29 -28 -52t-33.5 -37.5t-44.5 -24.5t-47 -15t-54 -7.5t-53 -3t-56 -0.5h-17h-222q7 -77 31 -139t69 -111.5t119 -76.5t173 -27 q54 0 146.5 28t166.5 91q-24 -119 -129 -178.5t-271 -59.5q-118 0 -210.5 36t-152 100.5t-91 150t-33.5 188.5h-111q-26 0 -34 -2z" />
<glyph unicode="&#xa5;" horiz-adv-x="1030" d="M137 276l25 132q0 -9 248 -9l34 185q-98 2 -211 2q-28 0 -36 -2l24 131q0 -2 189 -6l-107 315q-18 48 -37 105t-27 79.5t-20 48t-24.5 36.5t-32.5 20l20 35q65 28 142 28q64 0 94 -37q25 -117 85 -309.5t95 -275.5q30 41 59 80l226 301q71 98 35 178l20 35q67 28 119 28 q49 0 100 -28q-7 -36 -64 -129t-106 -152l-289 -360q210 0 251 8q18 3 26 8q-9 -26 -22.5 -46t-32.5 -34.5t-36 -25t-43.5 -16.5t-44.5 -10t-49.5 -5.5t-47.5 -1.5h-49h-15q-39 -119 -51 -185h14q255 0 301 11q11 3 16 6q-12 -34 -32.5 -59t-51 -40t-55.5 -24t-67.5 -12.5 t-65 -4t-67.5 -0.5h-6h-5h-6q-34 -162 -37 -276h-192l6 33q11 60 29.5 150t19.5 93q-147 3 -211 3q-25 0 -37 -3z" />
<glyph unicode="&#xa7;" horiz-adv-x="972" d="M23 -311l8 37q52 -52 125 -83t141 -30h18q25 106 32.5 212t-5.5 284t-53 434q-57 367 -33 571q22 175 136 294.5t265 119.5q79 0 140.5 -20t94 -49.5t47.5 -60t11 -55.5l-8 -36q-51 51 -124.5 82t-141.5 30q-2 0 -6.5 0.5t-8 0.5t-6.5 -1q-24 -107 -31 -212t6 -284.5 t54 -433.5q57 -367 33 -571q-22 -175 -136.5 -294.5t-265.5 -119.5q-64 0 -116.5 13t-85 33.5t-54.5 46t-30 49t-6 43.5zM371 1081q-8 -75 1.5 -176.5t44.5 -370.5l3 -24q17 -130 25.5 -203.5t15.5 -182.5t2 -182.5t-21 -157.5t-47 -153q84 29 138.5 108.5t68.5 211.5 q8 75 -1.5 176.5t-44.5 370.5q0 5 -0.5 8t-1 7.5t-1.5 8.5q-17 130 -25.5 203t-15.5 182.5t-3 183t20 157.5t46 153q-176 -63 -204 -320z" />
<glyph unicode="&#xa8;" horiz-adv-x="786" d="M106 1313q0 46 31 79t72 33t71.5 -33t30.5 -79q0 -47 -30 -80t-72 -33t-72.5 33t-30.5 80zM483 1313q0 46 31 79t72 33t71.5 -33t30.5 -79q0 -47 -30 -80t-72 -33t-72.5 33t-30.5 80z" />
<glyph unicode="&#xa9;" horiz-adv-x="1617" d="M113 627q0 158 54 295t150.5 235.5t236.5 154.5t306 56q186 0 333.5 -81.5t229.5 -228t82 -331.5q0 -213 -89.5 -382t-256.5 -266t-383 -97q-291 0 -477 181t-186 464zM244 672q0 -249 165 -415.5t412 -166.5q112 0 214 44.5t177.5 121.5t120.5 188t45 236 q0 255 -157.5 419.5t-403.5 164.5q-156 0 -286.5 -75.5t-208.5 -212t-78 -304.5zM473 651q0 173 100 295.5t258 122.5q122 0 193.5 -55.5t54.5 -134.5q-3 3 -8.5 8t-25.5 17.5t-44 22t-64 17.5t-85 8q-41 0 -82 -18t-68 -45q-71 -71 -71 -197q0 -104 57.5 -179t163.5 -75 q66 0 132.5 35t111.5 98q12 -37 12 -57q0 -82 -96.5 -142.5t-210.5 -60.5q-139 0 -233.5 85.5t-94.5 254.5z" />
<glyph unicode="&#xaa;" horiz-adv-x="858" />
<glyph unicode="&#xab;" horiz-adv-x="1302" d="M127 506q24 21 47 41l332 319q124 121 211 121q49 0 76 -31q-19 -6 -47.5 -27t-47.5 -39l-18 -18l-285 -303q-15 -16 -34.5 -31.5t-32 -23.5t-13.5 -8q2 0 11 -8.5t22.5 -24t20.5 -31.5l170 -303q40 -70 79 -84q-46 -28 -88 -28q-83 -3 -165 118l-205 320zM582 506 q24 21 47 41l332 319q124 121 210 121q49 0 76 -31q-19 -6 -47 -27t-46 -39l-19 -18l-285 -303q-15 -16 -34.5 -31.5t-32 -23.5t-13.5 -8q2 0 11 -8.5t22 -24t20 -31.5l170 -303q41 -70 80 -84q-46 -28 -88 -28q-84 -3 -166 118l-205 320z" />
<glyph unicode="&#xac;" horiz-adv-x="1095" />
<glyph unicode="&#xad;" d="M45 436l27 131q-1 -3 17.5 -4.5t57.5 -2.5t66.5 -1h77.5q219 0 260 7q19 4 27 9q-10 -29 -26.5 -51.5t-33 -37t-44 -25t-46 -15.5t-53 -7.5t-52 -2.5h-55.5h-20q-27 0 -90 1t-76 1q-29 0 -37 -2z" />
<glyph unicode="&#xae;" horiz-adv-x="1617" d="M113 627q0 158 54 295t150.5 235.5t236.5 154.5t306 56q186 0 333.5 -81.5t229.5 -228t82 -331.5q0 -213 -89.5 -382t-256.5 -266t-383 -97q-291 0 -477 181t-186 464zM244 672q0 -249 165 -415.5t412 -166.5q112 0 214 44.5t177.5 121.5t120.5 188t45 236 q0 255 -157.5 419.5t-403.5 164.5q-156 0 -286.5 -75.5t-208.5 -212t-78 -304.5zM565 965v43q79 41 142 41q47 0 63 -23.5t16 -69.5q0 -27 -6 -57q35 60 89 109t120 49q56 0 82.5 -28t26.5 -64t-26.5 -62t-67.5 -37q-8 26 -27.5 40t-40.5 14q-56 0 -92.5 -45t-51 -110.5 t-14.5 -148.5q0 -98 18.5 -190.5t45.5 -132.5h-209q0 33 2 211.5t2 294.5q0 46 -7 79.5t-15.5 49.5t-20 25t-17.5 10.5t-12 1.5z" />
<glyph unicode="&#xaf;" horiz-adv-x="686" d="M86 1225l27 131q-1 -3 17.5 -4.5t57.5 -2.5t66.5 -1h77.5q219 0 259 7q19 4 27 9q-10 -29 -26.5 -51.5t-33 -37t-43.5 -25t-45.5 -15.5t-53.5 -7.5t-52 -2.5h-55h-20q-27 0 -90 1t-76 1q-29 0 -37 -2z" />
<glyph unicode="&#xb0;" horiz-adv-x="817" d="M55 1176q0 141 100.5 240.5t243.5 99.5q141 0 240.5 -99.5t99.5 -240.5q0 -143 -99.5 -244t-240.5 -101q-142 0 -243 101t-101 244zM172 1176q0 -92 66.5 -159t158.5 -67q96 0 161 66.5t65 159.5q0 97 -64.5 161t-161.5 64q-93 0 -159 -64.5t-66 -160.5z" />
<glyph unicode="&#xb1;" horiz-adv-x="915" />
<glyph unicode="&#xb4;" horiz-adv-x="692" d="M113 1190q56 16 102 52.5t76 76.5t57.5 77.5t60 62t70.5 24.5h123l-106 -140q-143 -186 -314 -186q-22 0 -45.5 13t-23.5 20z" />
<glyph unicode="&#xb5;" horiz-adv-x="1062" />
<glyph unicode="&#xb6;" horiz-adv-x="1288" d="M90 631q0 140 57 273.5t148.5 231t212 157t242.5 59.5h223q220 0 262 7q19 4 27 9q-42 -116 -175 -133q-6 -20 -14 -66q-1 -3 -25.5 -123.5t-54 -267t-69 -343.5t-72.5 -369t-61 -328t-39 -234h-101q172 847 239 1189.5t95 535.5h-90q-5 -15 -14 -60q-1 -5 -25.5 -124 t-54.5 -266t-69 -344t-72.5 -369t-61.5 -328t-39 -234h-100q16 81 41.5 205.5t44 218.5t33.5 170q12 60 22 86q-74 -22 -135 -22q-110 0 -197 65t-132.5 171.5t-45.5 232.5z" />
<glyph unicode="&#xb7;" horiz-adv-x="528" d="M145 502q0 44 32.5 76t78.5 32q44 0 76.5 -32t32.5 -76q0 -46 -32.5 -78.5t-76.5 -32.5q-46 0 -78.5 32.5t-32.5 78.5z" />
<glyph unicode="&#xb8;" horiz-adv-x="823" d="M129 -395q0 33 18 63q16 -21 55 -32t83 -11q51 0 95 28.5t44 65.5q0 18 -16 32t-38.5 23.5t-45 20.5t-38.5 28.5t-16 41.5q0 73 95 121l43 2q-25 -38 -25 -66q0 -16 26.5 -27.5t57.5 -19.5t57.5 -34t26.5 -66q0 -99 -90 -177.5t-191 -78.5q-66 0 -103.5 23t-37.5 63z" />
<glyph unicode="&#xb9;" horiz-adv-x="526" />
<glyph unicode="&#xba;" horiz-adv-x="843" />
<glyph unicode="&#xbb;" horiz-adv-x="1316" d="M41 55q32 -28 76 -28q84 -3 211 118l331 320l50 41q-21 21 -35 41l-205 319q-75 121 -166 121q-43 0 -88 -31q17 -6 37 -27t32 -39l11 -18l170 -303q7 -16 21 -31.5t24 -23.5l10 -8q-49 -29 -82 -64l-284 -303q-70 -70 -113 -84zM496 55q32 -28 75 -28q84 -3 211 118 l332 320l49 41q-21 21 -35 41l-204 319q-75 121 -166 121q-43 0 -88 -31q17 -6 37 -27t31 -39l12 -18l170 -303q7 -16 21 -31.5t24 -23.5l10 -8q-49 -29 -82 -64l-285 -303q-69 -70 -112 -84z" />
<glyph unicode="&#xbc;" horiz-adv-x="1267" />
<glyph unicode="&#xbd;" horiz-adv-x="1267" />
<glyph unicode="&#xbf;" horiz-adv-x="849" d="M33 100q0 76 32.5 150t84.5 135.5t115 121t126 114t115 105.5t84.5 105.5t32.5 104.5q0 42 -31 70l45 22q111 -59 111 -151q0 -16 -3 -31q-13 -67 -50 -132t-85.5 -118t-105 -106t-109.5 -103.5t-97 -101.5t-70.5 -110.5t-26.5 -119.5q0 -155 176 -155q62 0 116 45.5 t54 124.5q0 6 -1 17t-1 17q37 43 96 43q47 0 68.5 -25t21.5 -59q0 -81 -57.5 -144.5t-143.5 -94.5t-180 -31q-152 0 -234.5 85t-82.5 222zM573 1255q0 46 32.5 78.5t76.5 32.5q46 0 78.5 -32.5t32.5 -78.5q0 -44 -32.5 -76t-78.5 -32q-44 0 -76.5 32t-32.5 76z" />
<glyph unicode="&#xc0;" horiz-adv-x="1124" d="M-111 0l678 1221q20 40 43.5 69.5t44 45.5t47 27.5t43.5 15.5t44 8.5t38 7.5q0 -67 15 -174l151 -1057q6 -79 37 -164h-231q1 10 -0.5 34.5t-1.5 35.5q-44 314 -58 401h-456l-238 -444q-3 -6 -10 -27h-146zM338 569h391q-13 86 -34 233.5t-35 240.5t-19 110zM420 1737 l59 -99q48 -80 109.5 -119.5t159.5 -39.5q57 0 94 37q-49 16 -83 45t-51.5 58.5t-33 56.5t-40.5 44t-63 17h-151z" />
<glyph unicode="&#xc1;" horiz-adv-x="1124" d="M-111 0l678 1221q20 40 43.5 69.5t44 45.5t47 27.5t43.5 15.5t44 8.5t38 7.5q0 -67 15 -174l151 -1057q6 -79 37 -164h-231q1 10 -0.5 34.5t-1.5 35.5q-44 314 -58 401h-456l-238 -444q-3 -6 -10 -27h-146zM338 569h391q-13 86 -34 233.5t-35 240.5t-19 110zM647 1516 q55 16 100 45t73.5 58.5t55.5 56.5t58.5 44t69.5 17h151l-100 -99q-81 -81 -156 -120t-174 -39q-55 0 -78 37z" />
<glyph unicode="&#xc2;" horiz-adv-x="1124" d="M-111 0l678 1221q20 40 43.5 69.5t44 45.5t47 27.5t43.5 15.5t44 8.5t38 7.5q0 -67 15 -174l151 -1057q6 -79 37 -164h-231q1 10 -0.5 34.5t-1.5 35.5q-44 314 -58 401h-456l-238 -444q-3 -6 -10 -27h-146zM338 569h391q-13 86 -34 233.5t-35 240.5t-19 110zM365 1489 q47 8 107.5 47t107 81.5t94.5 77t74 34.5h38h19q27 0 54.5 -22.5t53 -55.5t51.5 -67t60.5 -61.5t69.5 -33.5q0 -3 -14 -9.5t-36 -12t-40 -5.5q-98 0 -159.5 50t-82.5 141q-41 -62 -77.5 -99.5t-98 -64.5t-140.5 -27q-18 0 -38 5.5t-31.5 12t-11.5 9.5z" />
<glyph unicode="&#xc3;" horiz-adv-x="1124" d="M-111 0l678 1221q20 40 43.5 69.5t44 45.5t47 27.5t43.5 15.5t44 8.5t38 7.5q0 -67 15 -174l151 -1057q6 -79 37 -164h-231q1 10 -0.5 34.5t-1.5 35.5q-44 314 -58 401h-456l-238 -444q-3 -6 -10 -27h-146zM336 1522q102 57 166 57q42 0 91.5 -19.5t114 -39t144.5 -19.5 q115 0 211 45.5t137 134.5q-111 -59 -190 -59q-55 0 -164 33t-180 33q-116 0 -205 -39.5t-125 -126.5zM338 569h391q-13 86 -34 233.5t-35 240.5t-19 110z" />
<glyph unicode="&#xc4;" horiz-adv-x="1124" d="M-111 0l678 1221q20 40 43.5 69.5t44 45.5t47 27.5t43.5 15.5t44 8.5t38 7.5q0 -67 15 -174l151 -1057q6 -79 37 -164h-231q1 10 -0.5 34.5t-1.5 35.5q-44 314 -58 401h-456l-238 -444q-3 -6 -10 -27h-146zM338 569h391q-13 86 -34 233.5t-35 240.5t-19 110zM432 1599 q0 46 31 79.5t72 33.5t71.5 -33.5t30.5 -79.5q0 -47 -30 -79.5t-72 -32.5t-72.5 32.5t-30.5 79.5zM911 1599q0 46 31 79.5t72 33.5t71.5 -33.5t30.5 -79.5q0 -47 -30 -79.5t-72 -32.5t-72.5 32.5t-30.5 79.5z" />
<glyph unicode="&#xc5;" horiz-adv-x="1124" d="M-111 0l678 1221q20 40 43.5 69.5t44 45.5t47 27.5t43.5 15.5t44 8.5t38 7.5q0 -67 15 -174l151 -1057q6 -79 37 -164h-231q1 10 -0.5 34.5t-1.5 35.5q-44 314 -58 401h-456l-238 -444q-3 -6 -10 -27h-146zM338 569h391q-13 86 -34 233.5t-35 240.5t-19 110zM621 1608 q0 -77 50.5 -117.5t119.5 -40.5q80 0 136 52.5t56 133.5q0 61 -36.5 104t-92.5 54q-14 4 -43 4q-81 0 -135.5 -51t-54.5 -139zM705 1618q0 65 28 96t66 31q43 0 70.5 -29.5t27.5 -83.5q0 -66 -29 -97.5t-67 -31.5q-3 0 -9.5 1t-9.5 1q-33 6 -55 36.5t-22 76.5z" />
<glyph unicode="&#xc6;" horiz-adv-x="1527" d="M-111 0l811 1202q18 30 21 51q6 23 -12 64l22 35h397l347 6q26 -41 15 -124.5t-34 -103.5h-39q0 46 -52.5 78t-135.5 35l-170 6q0 -2 -4 -22q-62 -316 -105 -520h310q28 0 48 6.5t26 12.5l7 7q0 -16 -4 -41q-7 -37 -23 -59.5t-43.5 -34t-57 -15t-76.5 -3.5h-211 q-42 -204 -80 -435v-16h379q28 0 48 6.5t26 13.5l6 7q1 -16 -5 -41q-6 -28 -18 -48.5t-30.5 -32.5t-35.5 -19.5t-42.5 -10.5t-40 -3.5t-39.5 -0.5h-486q22 78 25 96l72 375h-353l-282 -430q-4 -7 -11.5 -23t-9.5 -18h-160zM418 569h305l100 521q24 122 33 161l-59 -108z" />
<glyph unicode="&#xc7;" horiz-adv-x="1277" d="M111 489q0 197 62.5 364t169 279.5t249 176t301.5 63.5q128 0 232 -50t126 -120q-7 -36 -58 -100.5t-103 -85.5l-29 26q2 6 2 19q0 26 -12 56.5t-35.5 61t-68.5 50.5t-103 20q-123 0 -223 -63.5t-161 -165.5t-93.5 -223t-32.5 -244q0 -94 20 -172t61 -139t108.5 -95 t156.5 -34q98 0 213.5 52t183.5 146q2 -4 2 -18q0 -113 -110 -196t-271 -111q-16 -29 -16 -64q0 -13 17.5 -22t42 -17t49 -18.5t42 -33.5t17.5 -56q0 -99 -90 -177.5t-191 -78.5q-66 0 -103.5 23t-37.5 63q0 33 18 63q16 -21 55 -32t83 -11q51 0 95 28.5t44 65.5 q0 18 -16 32t-38.5 23.5t-45 20.5t-38.5 28.5t-16 41.5q0 65 72 110q0 2 2 2q-54 -4 -78 -4q-115 0 -203.5 39.5t-142.5 110t-81 163t-27 203.5z" />
<glyph unicode="&#xc8;" horiz-adv-x="1003" d="M84 0l27 139l180 946q8 39 11.5 71t4.5 52t-2 39t-5.5 27t-8 22t-6.5 17l18 35h301l346 6q26 -41 15.5 -124.5t-33.5 -103.5h-39q0 46 -52.5 78t-135.5 35l-170 6q-51 -197 -109 -500h315q27 0 46.5 6.5t25.5 13.5l6 7q2 -16 -2 -41q-5 -24 -15.5 -42.5t-21.5 -30 t-30.5 -20t-32 -12.5t-36 -6t-34 -2h-33.5q-2 0 -49.5 1t-89 2t-76.5 0q-55 -285 -84 -480v-12h381q28 0 48.5 6.5t27.5 13.5l6 7q0 -16 -4 -41q-6 -28 -17.5 -48.5t-30.5 -32.5t-35.5 -19.5t-42 -10.5t-39.5 -3.5t-38 -0.5h-487zM358 1737l60 -99q48 -80 109 -119.5 t159 -39.5q57 0 94 37q-49 16 -83 45t-51 58.5t-33 56.5t-40.5 44t-62.5 17h-152z" />
<glyph unicode="&#xc9;" horiz-adv-x="1003" d="M84 0l27 139l180 946q8 39 11.5 71t4.5 52t-2 39t-5.5 27t-8 22t-6.5 17l18 35h301l346 6q26 -41 15.5 -124.5t-33.5 -103.5h-39q0 46 -52.5 78t-135.5 35l-170 6q-51 -197 -109 -500h315q27 0 46.5 6.5t25.5 13.5l6 7q2 -16 -2 -41q-5 -24 -15.5 -42.5t-21.5 -30 t-30.5 -20t-32 -12.5t-36 -6t-34 -2h-33.5q-2 0 -49.5 1t-89 2t-76.5 0q-55 -285 -84 -480v-12h381q28 0 48.5 6.5t27.5 13.5l6 7q0 -16 -4 -41q-6 -28 -17.5 -48.5t-30.5 -32.5t-35.5 -19.5t-42 -10.5t-39.5 -3.5t-38 -0.5h-487zM436 1516q55 16 100 45t73.5 58.5 t55.5 56.5t58.5 44t69.5 17h151l-100 -99q-82 -81 -156 -120t-174 -39q-55 0 -78 37z" />
<glyph unicode="&#xca;" horiz-adv-x="1003" d="M84 0l27 139l180 946q8 39 11.5 71t4.5 52t-2 39t-5.5 27t-8 22t-6.5 17l18 35h301l346 6q26 -41 15.5 -124.5t-33.5 -103.5h-39q0 46 -52.5 78t-135.5 35l-170 6q-51 -197 -109 -500h315q27 0 46.5 6.5t25.5 13.5l6 7q2 -16 -2 -41q-5 -24 -15.5 -42.5t-21.5 -30 t-30.5 -20t-32 -12.5t-36 -6t-34 -2h-33.5q-2 0 -49.5 1t-89 2t-76.5 0q-55 -285 -84 -480v-12h381q28 0 48.5 6.5t27.5 13.5l6 7q0 -16 -4 -41q-6 -28 -17.5 -48.5t-30.5 -32.5t-35.5 -19.5t-42 -10.5t-39.5 -3.5t-38 -0.5h-487zM276 1489q47 8 107.5 47t107 81.5t94.5 77 t74 34.5h39h19q27 0 54.5 -22.5t53 -55.5t51.5 -67t60.5 -61.5t69.5 -33.5q0 -3 -14.5 -9.5t-36.5 -12t-40 -5.5q-98 0 -159 50t-82 141q-41 -62 -77.5 -99.5t-98 -64.5t-140.5 -27q-18 0 -38 5.5t-32 12t-12 9.5z" />
<glyph unicode="&#xcb;" horiz-adv-x="1003" d="M84 0l27 139l180 946q8 39 11.5 71t4.5 52t-2 39t-5.5 27t-8 22t-6.5 17l18 35h301l346 6q26 -41 15.5 -124.5t-33.5 -103.5h-39q0 46 -52.5 78t-135.5 35l-170 6q-51 -197 -109 -500h315q27 0 46.5 6.5t25.5 13.5l6 7q2 -16 -2 -41q-5 -24 -15.5 -42.5t-21.5 -30 t-30.5 -20t-32 -12.5t-36 -6t-34 -2h-33.5q-2 0 -49.5 1t-89 2t-76.5 0q-55 -285 -84 -480v-12h381q28 0 48.5 6.5t27.5 13.5l6 7q0 -16 -4 -41q-6 -28 -17.5 -48.5t-30.5 -32.5t-35.5 -19.5t-42 -10.5t-39.5 -3.5t-38 -0.5h-487zM322 1599q0 46 30.5 79.5t71.5 33.5 t71.5 -33.5t30.5 -79.5q0 -47 -30 -79.5t-72 -32.5t-72 32.5t-30 79.5zM801 1599q0 46 30.5 79.5t71.5 33.5t72 -33.5t31 -79.5q0 -47 -30.5 -79.5t-72.5 -32.5t-72 32.5t-30 79.5z" />
<glyph unicode="&#xcc;" d="M100 0q22 96 213 1090q15 86 15 127q0 19 -3 36.5t-5 23.5t-10 22l-7 16l21 35q67 26 145 26q62 0 109 -24q-119 -515 -175 -811q-84 -438 -84 -521q0 -6 1.5 -12.5t1.5 -7.5h-222zM176 1737l60 -99q48 -80 109 -119.5t159 -39.5q57 0 94 37q-49 16 -83 45t-51 58.5 t-33 56.5t-40.5 44t-62.5 17h-152z" />
<glyph unicode="&#xcd;" d="M100 0q22 96 213 1090q15 86 15 127q0 19 -3 36.5t-5 23.5t-10 22l-7 16l21 35q67 26 145 26q62 0 109 -24q-119 -515 -175 -811q-84 -438 -84 -521q0 -6 1.5 -12.5t1.5 -7.5h-222zM301 1516q55 16 100 45t73.5 58.5t55 56.5t58 44t69.5 17h152l-100 -99 q-81 -81 -156 -120t-174 -39q-55 0 -78 37z" />
<glyph unicode="&#xce;" d="M88 1489q47 8 107.5 47t107 81.5t94.5 77t74 34.5h39h18q27 0 54.5 -22.5t53 -55.5t51.5 -67t60.5 -61.5t69.5 -33.5q0 -3 -14 -9.5t-36 -12t-40 -5.5q-98 0 -159.5 50t-82.5 141q-30 -46 -57 -76.5t-64.5 -59t-85.5 -42t-108 -13.5q-18 0 -38 5.5t-32 12t-12 9.5zM100 0 q22 96 213 1090q15 86 15 127q0 19 -3 36.5t-5 23.5t-10 22l-7 16l21 35q67 26 145 26q62 0 109 -24q-119 -515 -175 -811q-84 -438 -84 -521q0 -6 1.5 -12.5t1.5 -7.5h-222z" />
<glyph unicode="&#xcf;" d="M100 0q22 96 213 1090q15 86 15 127q0 19 -3 36.5t-5 23.5t-10 22l-7 16l21 35q67 26 145 26q62 0 109 -24q-119 -515 -175 -811q-84 -438 -84 -521q0 -6 1.5 -12.5t1.5 -7.5h-222zM162 1599q0 46 30.5 79.5t71.5 33.5t72 -33.5t31 -79.5q0 -47 -30.5 -79.5t-72.5 -32.5 t-72 32.5t-30 79.5zM539 1599q0 46 30.5 79.5t71.5 33.5t71.5 -33.5t30.5 -79.5q0 -47 -30 -79.5t-72 -32.5t-72 32.5t-30 79.5z" />
<glyph unicode="&#xd1;" horiz-adv-x="1474" d="M82 0l6 33q102 532 139 731l66 330q14 80 12.5 130t-22.5 91l20 35q2 1 12 5t13.5 5t13.5 4.5t15 4.5t14.5 3t16 2t15 -1t15.5 -3q9 -14 45.5 -73.5t72.5 -116.5t164 -253t332 -505q15 -21 27 -53.5t17 -54.5l5 -23q5 86 13 129q4 30 127 674q30 159 -11 221l21 35 q39 24 104 24q61 0 86 -22q-137 -591 -207 -961q-43 -232 -63 -391h-111l-579 911q-52 90 -58 127q0 -38 -10 -90q-9 -47 -34 -158.5t-35 -164.5q-90 -486 -99 -625h-143zM465 1522q102 57 166 57q42 0 91.5 -19.5t114 -39t144.5 -19.5q115 0 211 45.5t137 134.5 q-111 -59 -190 -59q-55 0 -164 33t-180 33q-116 0 -205 -39.5t-125 -126.5z" />
<glyph unicode="&#xd2;" horiz-adv-x="1368" d="M98 485q0 -235 111.5 -373.5t277.5 -138.5t314.5 68.5t256 186.5t170 285.5t62.5 356.5q0 234 -115 368t-303 134q-151 0 -291 -63.5t-247 -176t-171.5 -281.5t-64.5 -366zM322 545q0 176 65 339t171 262t220 99q127 0 206 -124t79 -316q0 -178 -65 -343.5t-171 -265.5 t-219 -100q-130 0 -208 128.5t-78 320.5zM569 1737l60 -99q48 -80 109 -119.5t159 -39.5q57 0 94 37q-49 16 -83 45t-51 58.5t-33 56.5t-40.5 44t-62.5 17h-152z" />
<glyph unicode="&#xd3;" horiz-adv-x="1368" d="M98 485q0 -235 111.5 -373.5t277.5 -138.5t314.5 68.5t256 186.5t170 285.5t62.5 356.5q0 234 -115 368t-303 134q-151 0 -291 -63.5t-247 -176t-171.5 -281.5t-64.5 -366zM322 545q0 176 65 339t171 262t220 99q127 0 206 -124t79 -316q0 -178 -65 -343.5t-171 -265.5 t-219 -100q-130 0 -208 128.5t-78 320.5zM709 1516q55 16 100 45t73.5 58.5t55 56.5t58 44t69.5 17h152l-101 -99q-81 -81 -156 -120t-174 -39q-54 0 -77 37z" />
<glyph unicode="&#xd4;" horiz-adv-x="1368" d="M98 485q0 -235 111.5 -373.5t277.5 -138.5t314.5 68.5t256 186.5t170 285.5t62.5 356.5q0 234 -115 368t-303 134q-151 0 -291 -63.5t-247 -176t-171.5 -281.5t-64.5 -366zM322 545q0 176 65 339t171 262t220 99q127 0 206 -124t79 -316q0 -178 -65 -343.5t-171 -265.5 t-219 -100q-130 0 -208 128.5t-78 320.5zM487 1489q47 8 107.5 47t107 81.5t94.5 77t74 34.5h39h19q27 0 54.5 -22.5t53 -55.5t51.5 -67t60.5 -61.5t69.5 -33.5q0 -3 -14.5 -9.5t-36.5 -12t-40 -5.5q-98 0 -159 50t-82 141q-41 -62 -77.5 -99.5t-98 -64.5t-140.5 -27 q-18 0 -38 5.5t-32 12t-12 9.5z" />
<glyph unicode="&#xd5;" horiz-adv-x="1368" d="M98 485q0 -235 111.5 -373.5t277.5 -138.5t314.5 68.5t256 186.5t170 285.5t62.5 356.5q0 234 -115 368t-303 134q-151 0 -291 -63.5t-247 -176t-171.5 -281.5t-64.5 -366zM322 545q0 176 65 339t171 262t220 99q127 0 206 -124t79 -316q0 -178 -65 -343.5t-171 -265.5 t-219 -100q-130 0 -208 128.5t-78 320.5zM422 1522q102 57 166 57q42 0 91.5 -19.5t114 -39t144.5 -19.5q115 0 211 45.5t137 134.5q-111 -59 -190 -59q-55 0 -164 33t-180 33q-116 0 -205 -39.5t-125 -126.5z" />
<glyph unicode="&#xd6;" horiz-adv-x="1368" d="M98 485q0 -235 111.5 -373.5t277.5 -138.5t314.5 68.5t256 186.5t170 285.5t62.5 356.5q0 234 -115 368t-303 134q-151 0 -291 -63.5t-247 -176t-171.5 -281.5t-64.5 -366zM322 545q0 176 65 339t171 262t220 99q127 0 206 -124t79 -316q0 -178 -65 -343.5t-171 -265.5 t-219 -100q-130 0 -208 128.5t-78 320.5zM516 1599q0 46 30.5 79.5t71.5 33.5t72 -33.5t31 -79.5q0 -47 -30.5 -79.5t-72.5 -32.5t-72 32.5t-30 79.5zM995 1599q0 46 31 79.5t72 33.5t71.5 -33.5t30.5 -79.5q0 -47 -30 -79.5t-72 -32.5t-72.5 32.5t-30.5 79.5z" />
<glyph unicode="&#xd8;" horiz-adv-x="1368" d="M27 74l69 -72q0 1 14 15t44 45t59 61q119 -148 311 -148q139 0 262 50.5t212.5 136.5t155 198t98 237.5t32.5 252.5q0 168 -59 289q14 13 44 40t42.5 39t30 30.5t24 31.5t6.5 25q0 18 -13.5 32t-49.5 35q-11 -12 -57 -66t-78 -87q-60 76 -144 114.5t-178 38.5 q-156 0 -294.5 -64.5t-239.5 -178t-159.5 -278.5t-58.5 -357q0 -172 60 -289q-86 -86 -133 -131zM322 530q0 143 39 276.5t102.5 229t145.5 152.5t165 57q79 0 142 -48t102 -134q-407 -411 -682 -684q-14 63 -14 151zM362 281q307 313 689 688q18 -74 18 -164 q0 -116 -29 -226.5t-78 -195.5t-110 -150.5t-128.5 -100t-129.5 -34.5q-78 0 -138 48.5t-94 134.5z" />
<glyph unicode="&#xd9;" horiz-adv-x="1357" d="M139 301q0 41 11 127q63 394 114 662q15 86 15 127q0 13 -1 25t-2.5 19.5t-4.5 17t-4.5 13t-5.5 12.5t-5 11l20 35q68 26 144 26q63 0 110 -24q-63 -272 -180 -897q-12 -62 -12 -109q0 -58 17 -102t42 -69t60.5 -40.5t66.5 -20.5t66 -5q147 0 262 79.5t143 194.5 q21 67 144 711q14 71 14 120q0 62 -25 101l23 35q34 24 104 24q61 0 86 -22q-105 -431 -192 -908q-40 -205 -202.5 -339t-399.5 -134q-75 0 -135 9.5t-112 32.5t-87 60t-54.5 94.5t-19.5 133.5zM571 1737l60 -99q48 -80 109 -119.5t159 -39.5q57 0 94 37q-49 16 -83 45 t-51 58.5t-33 56.5t-40.5 44t-62.5 17h-152z" />
<glyph unicode="&#xda;" horiz-adv-x="1357" d="M139 301q0 41 11 127q63 394 114 662q15 86 15 127q0 13 -1 25t-2.5 19.5t-4.5 17t-4.5 13t-5.5 12.5t-5 11l20 35q68 26 144 26q63 0 110 -24q-63 -272 -180 -897q-12 -62 -12 -109q0 -58 17 -102t42 -69t60.5 -40.5t66.5 -20.5t66 -5q147 0 262 79.5t143 194.5 q21 67 144 711q14 71 14 120q0 62 -25 101l23 35q34 24 104 24q61 0 86 -22q-105 -431 -192 -908q-40 -205 -202.5 -339t-399.5 -134q-75 0 -135 9.5t-112 32.5t-87 60t-54.5 94.5t-19.5 133.5zM674 1516q55 16 100 45t73.5 58.5t55 56.5t58 44t69.5 17h152l-101 -99 q-81 -81 -155.5 -120t-173.5 -39q-55 0 -78 37z" />
<glyph unicode="&#xdb;" horiz-adv-x="1357" d="M139 301q0 41 11 127q63 394 114 662q15 86 15 127q0 13 -1 25t-2.5 19.5t-4.5 17t-4.5 13t-5.5 12.5t-5 11l20 35q68 26 144 26q63 0 110 -24q-63 -272 -180 -897q-12 -62 -12 -109q0 -58 17 -102t42 -69t60.5 -40.5t66.5 -20.5t66 -5q147 0 262 79.5t143 194.5 q21 67 144 711q14 71 14 120q0 62 -25 101l23 35q34 24 104 24q61 0 86 -22q-105 -431 -192 -908q-40 -205 -202.5 -339t-399.5 -134q-75 0 -135 9.5t-112 32.5t-87 60t-54.5 94.5t-19.5 133.5zM471 1489q47 8 107.5 47t107 81.5t94.5 77t74 34.5h39h18q27 0 54.5 -22.5 t53 -55.5t51.5 -67t60.5 -61.5t69.5 -33.5q0 -3 -14 -9.5t-36 -12t-40 -5.5q-98 0 -159.5 50t-82.5 141q-30 -46 -57 -76.5t-64.5 -59t-85.5 -42t-108 -13.5q-18 0 -38 5.5t-32 12t-12 9.5z" />
<glyph unicode="&#xdc;" horiz-adv-x="1357" d="M139 301q0 41 11 127q63 394 114 662q15 86 15 127q0 13 -1 25t-2.5 19.5t-4.5 17t-4.5 13t-5.5 12.5t-5 11l20 35q68 26 144 26q63 0 110 -24q-63 -272 -180 -897q-12 -62 -12 -109q0 -58 17 -102t42 -69t60.5 -40.5t66.5 -20.5t66 -5q147 0 262 79.5t143 194.5 q21 67 144 711q14 71 14 120q0 62 -25 101l23 35q34 24 104 24q61 0 86 -22q-105 -431 -192 -908q-40 -205 -202.5 -339t-399.5 -134q-75 0 -135 9.5t-112 32.5t-87 60t-54.5 94.5t-19.5 133.5zM496 1599q0 46 30.5 79.5t71.5 33.5t71.5 -33.5t30.5 -79.5q0 -47 -30 -79.5 t-72 -32.5t-72 32.5t-30 79.5zM975 1599q0 46 30.5 79.5t71.5 33.5t72 -33.5t31 -79.5q0 -47 -30.5 -79.5t-72.5 -32.5t-72 32.5t-30 79.5z" />
<glyph unicode="&#xdf;" horiz-adv-x="1171" d="M61 0h199q0 63 4 86q132 843 195 1081q31 118 109.5 189t181.5 71q170 0 170 -127q0 -26 -5 -43q-12 -60 -43 -120t-68.5 -105.5t-78.5 -95.5t-74.5 -93t-55.5 -96t-22 -106q0 -46 21 -86.5t52.5 -68.5t68 -57t68 -52.5t52.5 -54t21 -62.5q0 -73 -61.5 -123.5 t-145.5 -50.5q-132 0 -192 42t-60 93q-37 -45 -37 -96q0 -70 77 -111t179 -41q81 0 157 26.5t136.5 74.5t97.5 122t37 162q0 63 -31 116t-75 88.5t-88.5 66.5t-75.5 63t-31 64q0 39 37 92.5t90 110t106.5 118t90.5 135.5t37 144q0 92 -79.5 140t-197.5 48q-103 0 -189.5 -28 t-143.5 -70t-101 -100.5t-67.5 -111t-38.5 -108.5q-32 -114 -129 -122l-21 -62q68 -32 68 -135q0 -46 -10 -94l-125 -662q-5 -16 -9 -51z" />
<glyph unicode="&#xe0;" horiz-adv-x="1038" d="M82 299q0 195 74 366t204 274t283 103q40 0 154 -19t159 -22l-51 -256q-3 -18 -8.5 -46t-25 -126t-44.5 -225q-14 -110 -14 -153q0 -97 78 -97q12 0 24.5 2t18.5 4l6 2l14 -36q-13 -11 -35.5 -27t-79.5 -43t-100 -27q-55 0 -84 31t-31.5 79t4 90.5t19.5 80.5 q-65 -120 -164.5 -200.5t-187.5 -80.5q-87 0 -150 85t-63 241zM270 322q0 -103 37 -152t92 -49q54 0 120.5 59.5t123.5 132.5q99 422 109 594q-88 25 -160 25q-82 0 -156.5 -84.5t-120 -226.5t-45.5 -299zM432 1483l53 -140q72 -186 236 -186q23 0 51.5 13.5t30.5 19.5 q-49 16 -80.5 52.5t-46 76.5t-28 77.5t-36.5 62t-61 24.5h-119z" />
<glyph unicode="&#xe1;" horiz-adv-x="1038" d="M82 299q0 195 74 366t204 274t283 103q40 0 154 -19t159 -22l-51 -256q-3 -18 -8.5 -46t-25 -126t-44.5 -225q-14 -110 -14 -153q0 -97 78 -97q12 0 24.5 2t18.5 4l6 2l14 -36q-13 -11 -35.5 -27t-79.5 -43t-100 -27q-55 0 -84 31t-31.5 79t4 90.5t19.5 80.5 q-65 -120 -164.5 -200.5t-187.5 -80.5q-87 0 -150 85t-63 241zM270 322q0 -103 37 -152t92 -49q54 0 120.5 59.5t123.5 132.5q99 422 109 594q-88 25 -160 25q-82 0 -156.5 -84.5t-120 -226.5t-45.5 -299zM551 1190q56 16 102 52.5t76 76.5t58 77.5t60.5 62t70.5 24.5h122 l-106 -140q-143 -186 -313 -186q-22 0 -46 13t-24 20z" />
<glyph unicode="&#xe2;" horiz-adv-x="1038" d="M82 299q0 195 74 366t204 274t283 103q40 0 154 -19t159 -22l-51 -256q-3 -18 -8.5 -46t-25 -126t-44.5 -225q-14 -110 -14 -153q0 -97 78 -97q12 0 24.5 2t18.5 4l6 2l14 -36q-13 -11 -35.5 -27t-79.5 -43t-100 -27q-55 0 -84 31t-31.5 79t4 90.5t19.5 80.5 q-65 -120 -164.5 -200.5t-187.5 -80.5q-87 0 -150 85t-63 241zM270 322q0 -103 37 -152t92 -49q54 0 120.5 59.5t123.5 132.5q99 422 109 594q-88 25 -160 25q-82 0 -156.5 -84.5t-120 -226.5t-45.5 -299zM338 1190q42 9 97.5 57t99.5 100t88.5 94t68.5 42h33h16 q24 0 47 -27.5t43.5 -68t41 -82t49 -75t59.5 -40.5q-2 -6 -30.5 -19.5t-51.5 -13.5q-90 0 -142.5 65.5t-58.5 168.5q-10 -22 -13.5 -30.5t-19.5 -38.5t-29.5 -46.5t-38.5 -42.5t-50.5 -40t-62 -25t-76.5 -11q-22 0 -46 13t-24 20z" />
<glyph unicode="&#xe3;" horiz-adv-x="1038" d="M82 299q0 195 74 366t204 274t283 103q40 0 154 -19t159 -22l-51 -256q-3 -18 -8.5 -46t-25 -126t-44.5 -225q-14 -110 -14 -153q0 -97 78 -97q12 0 24.5 2t18.5 4l6 2l14 -36q-13 -11 -35.5 -27t-79.5 -43t-100 -27q-55 0 -84 31t-31.5 79t4 90.5t19.5 80.5 q-65 -120 -164.5 -200.5t-187.5 -80.5q-87 0 -150 85t-63 241zM270 322q0 -103 37 -152t92 -49q54 0 120.5 59.5t123.5 132.5q99 422 109 594q-88 25 -160 25q-82 0 -156.5 -84.5t-120 -226.5t-45.5 -299zM315 1241q2 1 12.5 7.5t14.5 9t14.5 8.5t16.5 8.5t16 6.5t18 6 t18 3.5t19 1.5q36 0 132 -34.5t176 -34.5q92 0 168.5 41t109.5 122q-93 -55 -153 -55q-41 0 -141.5 35t-157.5 35q-87 0 -160 -40t-103 -120z" />
<glyph unicode="&#xe4;" horiz-adv-x="1038" d="M82 299q0 195 74 366t204 274t283 103q40 0 154 -19t159 -22l-51 -256q-3 -18 -8.5 -46t-25 -126t-44.5 -225q-14 -110 -14 -153q0 -97 78 -97q12 0 24.5 2t18.5 4l6 2l14 -36q-13 -11 -35.5 -27t-79.5 -43t-100 -27q-55 0 -84 31t-31.5 79t4 90.5t19.5 80.5 q-65 -120 -164.5 -200.5t-187.5 -80.5q-87 0 -150 85t-63 241zM270 322q0 -103 37 -152t92 -49q54 0 120.5 59.5t123.5 132.5q99 422 109 594q-88 25 -160 25q-82 0 -156.5 -84.5t-120 -226.5t-45.5 -299zM383 1313q0 46 30.5 79t71.5 33t72 -33t31 -79q0 -47 -30.5 -80 t-72.5 -33t-72 33t-30 80zM760 1313q0 46 30.5 79t71.5 33t72 -33t31 -79q0 -47 -30.5 -80t-72.5 -33t-72 33t-30 80z" />
<glyph unicode="&#xe5;" horiz-adv-x="1038" d="M82 299q0 195 74 366t204 274t283 103q40 0 154 -19t159 -22l-51 -256q-3 -18 -8.5 -46t-25 -126t-44.5 -225q-14 -110 -14 -153q0 -97 78 -97q12 0 24.5 2t18.5 4l6 2l14 -36q-13 -11 -35.5 -27t-79.5 -43t-100 -27q-55 0 -84 31t-31.5 79t4 90.5t19.5 80.5 q-65 -120 -164.5 -200.5t-187.5 -80.5q-87 0 -150 85t-63 241zM270 322q0 -103 37 -152t92 -49q54 0 120.5 59.5t123.5 132.5q99 422 109 594q-88 25 -160 25q-82 0 -156.5 -84.5t-120 -226.5t-45.5 -299zM514 1319q0 -77 50.5 -117.5t119.5 -40.5q80 0 136.5 53t56.5 134 q0 61 -36.5 103.5t-92.5 53.5q-14 4 -43 4q-81 0 -136 -51t-55 -139zM598 1329q0 65 28 96t66 31q43 0 71 -29.5t28 -83.5q0 -66 -29.5 -97.5t-67.5 -31.5q-3 0 -9 1.5t-9 1.5q-34 6 -56 36t-22 76z" />
<glyph unicode="&#xe6;" horiz-adv-x="1521" d="M82 299q0 195 74 366t204 274t283 103q29 0 138 -17t165 -17q39 0 112.5 15t129.5 15q133 0 200.5 -57t67.5 -156q0 -106 -80 -188t-205.5 -123t-271.5 -41h-45v-33q0 -56 11.5 -108t36 -99t69.5 -75.5t106 -28.5q85 0 175.5 48t160.5 132q0 -88 -60.5 -166t-158.5 -124 t-205 -46q-118 0 -202.5 77t-110.5 214q-71 -116 -181.5 -203.5t-199.5 -87.5q-87 0 -150 85t-63 241zM270 322q0 -103 37 -152t92 -49q50 0 128 70t141 149v29q0 158 60.5 297.5t160.5 236.5h-4q-42 0 -128.5 16.5t-150.5 16.5q-82 0 -160 -85.5t-127 -229t-49 -299.5z M868 547q50 4 89.5 10t88 17.5t84.5 31t67.5 47t48 69t16.5 93.5q0 45 -22.5 77t-80.5 32q-71 0 -135.5 -62t-103 -146t-52.5 -169z" />
<glyph unicode="&#xe7;" horiz-adv-x="944" d="M82 373q0 164 69 316.5t193 250.5t268 98q123 0 212 -41.5t89 -119.5q0 -66 -58.5 -102.5t-119.5 3.5q0 67 -31.5 106.5t-115.5 39.5q-86 0 -160 -78.5t-114 -194t-40 -231.5q0 -126 59 -208.5t177 -82.5q84 0 169.5 47.5t156.5 132.5q4 -116 -101 -210.5t-250 -118.5 q-18 -33 -18 -58q0 -16 26.5 -27.5t57.5 -19.5t57.5 -34t26.5 -66q0 -99 -90 -177.5t-191 -78.5q-66 0 -103.5 23t-37.5 63q0 33 18 63q16 -21 55 -32t83 -11q51 0 95 28.5t44 65.5q0 18 -16 32t-38.5 23.5t-45 20.5t-38.5 28.5t-16 41.5q0 63 72 108h-14q-140 0 -235 109 t-95 291z" />
<glyph unicode="&#xe8;" horiz-adv-x="940" d="M84 379q3 134 49.5 258t119.5 210.5t165.5 138.5t185.5 52q134 0 202 -58.5t66 -158.5q-2 -106 -82.5 -186.5t-205 -121t-269.5 -40.5h-41q-4 -32 -4 -53q-1 -71 21.5 -135.5t75.5 -110t127 -45.5q85 0 175 48t160 132q4 -87 -58 -165.5t-161 -124.5t-204 -46 q-141 0 -233 109.5t-89 296.5zM285 547q61 5 108 12.5t103 26t93 46t62.5 74.5t26.5 109q2 43 -22 76t-81 33q-54 0 -105 -36t-87.5 -93t-61.5 -121.5t-36 -126.5zM408 1483l53 -140q72 -186 235 -186q23 0 51.5 13.5t30.5 19.5q-49 16 -80.5 52.5t-46 76.5t-28 77.5 t-36.5 62t-61 24.5h-118z" />
<glyph unicode="&#xe9;" horiz-adv-x="940" d="M84 379q3 134 49.5 258t119.5 210.5t165.5 138.5t185.5 52q134 0 202 -58.5t66 -158.5q-2 -106 -82.5 -186.5t-205 -121t-269.5 -40.5h-41q-4 -32 -4 -53q-1 -71 21.5 -135.5t75.5 -110t127 -45.5q85 0 175 48t160 132q4 -87 -58 -165.5t-161 -124.5t-204 -46 q-141 0 -233 109.5t-89 296.5zM285 547q61 5 108 12.5t103 26t93 46t62.5 74.5t26.5 109q2 43 -22 76t-81 33q-54 0 -105 -36t-87.5 -93t-61.5 -121.5t-36 -126.5zM524 1190q56 16 102 52.5t76 76.5t58 77.5t60.5 62t70.5 24.5h123l-107 -140q-143 -186 -313 -186 q-22 0 -46 13t-24 20z" />
<glyph unicode="&#xea;" horiz-adv-x="940" d="M84 379q3 134 49.5 258t119.5 210.5t165.5 138.5t185.5 52q134 0 202 -58.5t66 -158.5q-2 -106 -82.5 -186.5t-205 -121t-269.5 -40.5h-41q-4 -32 -4 -53q-1 -71 21.5 -135.5t75.5 -110t127 -45.5q85 0 175 48t160 132q4 -87 -58 -165.5t-161 -124.5t-204 -46 q-141 0 -233 109.5t-89 296.5zM285 547q61 5 108 12.5t103 26t93 46t62.5 74.5t26.5 109q2 43 -22 76t-81 33q-54 0 -105 -36t-87.5 -93t-61.5 -121.5t-36 -126.5zM315 1190q42 9 98 57t100 100t88.5 94t68.5 42h32h17q29 0 58.5 -42t51.5 -94t56.5 -100t72.5 -57 q-2 -6 -30 -19.5t-51 -13.5q-90 0 -142.5 65.5t-58.5 168.5q-8 -19 -11.5 -26t-16 -32.5t-23.5 -39.5t-29.5 -38t-39 -38.5t-46.5 -30t-58 -22.5t-67 -7q-22 0 -46 13t-24 20z" />
<glyph unicode="&#xeb;" horiz-adv-x="940" d="M84 379q3 134 49.5 258t119.5 210.5t165.5 138.5t185.5 52q134 0 202 -58.5t66 -158.5q-2 -106 -82.5 -186.5t-205 -121t-269.5 -40.5h-41q-4 -32 -4 -53q-1 -71 21.5 -135.5t75.5 -110t127 -45.5q85 0 175 48t160 132q4 -87 -58 -165.5t-161 -124.5t-204 -46 q-141 0 -233 109.5t-89 296.5zM285 547q61 5 108 12.5t103 26t93 46t62.5 74.5t26.5 109q2 43 -22 76t-81 33q-54 0 -105 -36t-87.5 -93t-61.5 -121.5t-36 -126.5zM352 1313q0 46 31 79t72 33t71.5 -33t30.5 -79q0 -47 -30 -80t-72 -33t-72.5 33t-30.5 80zM729 1313 q0 46 30.5 79t71.5 33t72 -33t31 -79q0 -47 -30.5 -80t-72.5 -33t-72 33t-30 80z" />
<glyph unicode="&#xec;" horiz-adv-x="542" d="M92 0l2 8q150 784 150 817q1 36 -15 55t-41 19q-10 0 -16 -2l-18 33q35 41 97 72.5t120 31.5q39 0 58 -27t17 -69q0 -26 -22 -118t-23 -95q-7 -36 -22.5 -128.5t-37 -225t-36.5 -217.5q-12 -64 -12 -117q0 -25 -2 -37h-199zM100 1483l54 -140q72 -186 235 -186 q23 0 51.5 13.5t30.5 19.5q-49 16 -80.5 52.5t-46 76.5t-28 77.5t-36.5 62t-61 24.5h-119z" />
<glyph unicode="&#xed;" horiz-adv-x="542" d="M92 0l2 8q150 784 150 817q1 36 -15 55t-41 19q-10 0 -16 -2l-18 33q35 41 97 72.5t120 31.5q39 0 58 -27t17 -69q0 -26 -22 -118t-23 -95q-7 -36 -22.5 -128.5t-37 -225t-36.5 -217.5q-12 -64 -12 -117q0 -25 -2 -37h-199zM225 1190q56 16 102 52.5t76 76.5t58 77.5 t60.5 62t70.5 24.5h123l-107 -140q-143 -186 -313 -186q-22 0 -46 13t-24 20z" />
<glyph unicode="&#xee;" horiz-adv-x="542" d="M92 0l2 8q150 784 150 817q1 36 -15 55t-41 19q-10 0 -16 -2l-18 33q35 41 97 72.5t120 31.5q39 0 58 -27t17 -69q0 -26 -22 -118t-23 -95q-7 -36 -22.5 -128.5t-37 -225t-36.5 -217.5q-12 -64 -12 -117q0 -25 -2 -37h-199zM92 1190q42 9 97.5 57t99.5 100t88.5 94 t68.5 42h33h17q29 0 58.5 -42t51.5 -94t56.5 -100t72.5 -57q-2 -6 -30.5 -19.5t-51.5 -13.5q-90 0 -142 65.5t-58 168.5q-8 -19 -11.5 -26t-16 -32.5t-23.5 -39.5t-29.5 -38t-39 -38.5t-46.5 -30t-58 -22.5t-67 -7q-22 0 -46 13t-24 20z" />
<glyph unicode="&#xef;" horiz-adv-x="542" d="M92 0l2 8q150 784 150 817q1 36 -15 55t-41 19q-10 0 -16 -2l-18 33q35 41 97 72.5t120 31.5q39 0 58 -27t17 -69q0 -26 -22 -118t-23 -95q-7 -36 -22.5 -128.5t-37 -225t-36.5 -217.5q-12 -64 -12 -117q0 -25 -2 -37h-199zM92 1313q0 46 31 79t72 33t71.5 -33t30.5 -79 q0 -47 -30 -80t-72 -33t-72.5 33t-30.5 80zM469 1313q0 46 30.5 79t71.5 33t72 -33t31 -79q0 -47 -30.5 -80t-72.5 -33t-72 33t-30 80z" />
<glyph unicode="&#xf1;" horiz-adv-x="1107" d="M82 0v8l147 770q8 43 -5.5 82t-45.5 39q-10 0 -16 -2l-19 33q33 41 95.5 72.5t121.5 31.5q39 0 57.5 -26.5t18.5 -69.5q0 -52 -33 -168q30 43 74 87t100 87t123 70.5t129 27.5q75 0 128.5 -58.5t46.5 -162.5q-3 -37 -36.5 -205t-64.5 -349t-31 -267h-194q0 12 14 98 q93 486 107 598q11 94 -8 139.5t-78 45.5q-84 0 -176 -60.5t-150 -138.5q-5 -32 -39 -219.5t-55 -308.5q-9 -64 -12 -117v-37h-199zM362 1241q2 1 11.5 7t12.5 8t12.5 7t14.5 7.5t14 6.5t16 6t15.5 4.5t17 3.5t16.5 1q36 0 131.5 -34.5t175.5 -34.5q92 0 168.5 41t109.5 122 q-93 -55 -153 -55q-41 0 -141.5 35t-157.5 35q-87 0 -160 -40t-103 -120z" />
<glyph unicode="&#xf2;" horiz-adv-x="1030" d="M84 369q-1 -53 5 -101t25.5 -104t51.5 -96.5t89.5 -67.5t133.5 -27q155 0 283.5 96t200 250t73.5 328q3 184 -81.5 287.5t-223.5 103.5q-112 0 -213.5 -50.5t-176.5 -138.5t-120 -213t-47 -267zM281 403q1 44 8 102.5t26.5 136t48 141t78.5 107.5t113 44q94 0 145 -89 t48 -239q-1 -224 -90 -378t-201 -154q-88 0 -133.5 90t-42.5 239zM410 1483l53 -140q72 -186 235 -186q23 0 51.5 13.5t30.5 19.5q-49 16 -80.5 52.5t-46 76.5t-28 77.5t-36.5 62t-61 24.5h-118z" />
<glyph unicode="&#xf3;" horiz-adv-x="1030" d="M84 369q-1 -53 5 -101t25.5 -104t51.5 -96.5t89.5 -67.5t133.5 -27q155 0 283.5 96t200 250t73.5 328q3 184 -81.5 287.5t-223.5 103.5q-112 0 -213.5 -50.5t-176.5 -138.5t-120 -213t-47 -267zM281 403q1 44 8 102.5t26.5 136t48 141t78.5 107.5t113 44q94 0 145 -89 t48 -239q-1 -224 -90 -378t-201 -154q-88 0 -133.5 90t-42.5 239zM522 1190q56 16 102 52.5t76 76.5t58 77.5t60.5 62t70.5 24.5h123l-107 -140q-143 -186 -313 -186q-22 0 -46 13t-24 20z" />
<glyph unicode="&#xf4;" horiz-adv-x="1030" d="M84 369q-1 -53 5 -101t25.5 -104t51.5 -96.5t89.5 -67.5t133.5 -27q155 0 283.5 96t200 250t73.5 328q3 184 -81.5 287.5t-223.5 103.5q-112 0 -213.5 -50.5t-176.5 -138.5t-120 -213t-47 -267zM281 403q1 44 8 102.5t26.5 136t48 141t78.5 107.5t113 44q94 0 145 -89 t48 -239q-1 -224 -90 -378t-201 -154q-88 0 -133.5 90t-42.5 239zM342 1190q42 9 97.5 57t99.5 100t88.5 94t68.5 42h33h16q24 0 47 -27.5t43.5 -68t41 -82t49 -75t59.5 -40.5q-2 -6 -30.5 -19.5t-51.5 -13.5q-90 0 -142.5 65.5t-58.5 168.5q-10 -22 -13.5 -30.5 t-19.5 -38.5t-29.5 -46.5t-38.5 -42.5t-50.5 -40t-62 -25t-76.5 -11q-22 0 -46 13t-24 20z" />
<glyph unicode="&#xf5;" horiz-adv-x="1030" d="M84 369q-1 -53 5 -101t25.5 -104t51.5 -96.5t89.5 -67.5t133.5 -27q155 0 283.5 96t200 250t73.5 328q3 184 -81.5 287.5t-223.5 103.5q-112 0 -213.5 -50.5t-176.5 -138.5t-120 -213t-47 -267zM281 403q1 44 8 102.5t26.5 136t48 141t78.5 107.5t113 44q94 0 145 -89 t48 -239q-1 -224 -90 -378t-201 -154q-88 0 -133.5 90t-42.5 239zM307 1241q2 1 12.5 7.5t14.5 9t14.5 8.5t16.5 8.5t16 6.5t18 6t18 3.5t19 1.5q36 0 131.5 -34.5t175.5 -34.5q92 0 169 41t110 122q-93 -55 -154 -55q-41 0 -141.5 35t-157.5 35q-86 0 -159 -40t-103 -120z " />
<glyph unicode="&#xf6;" horiz-adv-x="1030" d="M84 369q-1 -53 5 -101t25.5 -104t51.5 -96.5t89.5 -67.5t133.5 -27q155 0 283.5 96t200 250t73.5 328q3 184 -81.5 287.5t-223.5 103.5q-112 0 -213.5 -50.5t-176.5 -138.5t-120 -213t-47 -267zM281 403q1 44 8 102.5t26.5 136t48 141t78.5 107.5t113 44q94 0 145 -89 t48 -239q-1 -224 -90 -378t-201 -154q-88 0 -133.5 90t-42.5 239zM360 1313q0 46 31 79t72 33t71.5 -33t30.5 -79q0 -47 -30 -80t-72 -33t-72.5 33t-30.5 80zM737 1313q0 46 31 79t72 33t71.5 -33t30.5 -79q0 -47 -30 -80t-72 -33t-72.5 33t-30.5 80z" />
<glyph unicode="&#xf7;" horiz-adv-x="1001" d="M180 461v131q0 -8 344 -8q219 0 259 7q19 4 26 9q-6 -34 -19.5 -59t-37.5 -39.5t-44.5 -23.5t-58.5 -12.5t-59 -4t-64 -0.5h-20q-27 0 -151.5 1t-137.5 1q-29 0 -37 -2zM365 229q0 48 33.5 81.5t82.5 33.5q47 0 81 -34t34 -81q0 -49 -33.5 -82.5t-81.5 -33.5 q-49 0 -82.5 33.5t-33.5 82.5zM365 819q0 48 33.5 81.5t82.5 33.5q47 0 81 -34t34 -81q0 -49 -33.5 -83t-81.5 -34q-49 0 -82.5 33.5t-33.5 83.5z" />
<glyph unicode="&#xf8;" horiz-adv-x="1030" d="M0 70l63 -68q36 37 87 88q77 -117 239 -117q155 0 283.5 96t200 250t73.5 328q0 128 -35 205q6 5 19 16.5t18.5 16.5t16 15t15 15t12 13t10.5 13t7 12t5.5 12.5t1.5 11.5q0 18 -14 31.5t-50 35.5q-15 -17 -45.5 -52.5t-46.5 -53.5q-80 100 -219 100q-112 0 -213.5 -50.5 t-176.5 -138.5t-120 -213t-47 -267q-4 -103 25 -193q-23 -25 -109 -106zM281 346v57q1 44 8 102.5t26.5 136t48 141t78.5 107.5t113 44q117 0 166 -139q-49 -50 -131 -134.5t-155.5 -159.5t-153.5 -155zM295 244q207 215 448 450q5 -34 5 -88q-1 -224 -90 -378t-201 -154 q-121 0 -162 170z" />
<glyph unicode="&#xf9;" horiz-adv-x="1128" d="M119 166q0 40 46.5 276.5t59.5 335.5q2 8 2 27q0 40 -13 67t-40 27q-10 0 -16 -2l-19 33q33 41 95.5 72.5t121.5 31.5q39 0 57.5 -26.5t18.5 -69.5q0 -54 -26 -168q-15 -73 -44 -195t-43 -195t-14 -124q0 -63 24.5 -95t80.5 -32q83 0 175 60.5t150 138.5q5 30 34.5 190 t47.5 268v19q0 94 -51 94q-10 0 -16 -2l-19 33q33 41 95.5 72.5t121.5 31.5q39 0 57.5 -26.5t18.5 -69.5q0 -66 -29 -168l-100 -539q-4 -32 -4 -45q0 -48 23.5 -68t56.5 -20q25 0 45 8l14 -36q-43 -37 -112.5 -67t-114.5 -30q-113 0 -113 121q0 65 29 146q-30 -43 -74 -87.5 t-100 -87.5t-123 -70.5t-129 -27.5q-71 0 -122.5 53t-51.5 146zM389 1483l53 -140q72 -186 236 -186q23 0 51.5 13.5t30.5 19.5q-49 16 -80.5 52.5t-46 76.5t-28 77.5t-36.5 62t-61 24.5h-119z" />
<glyph unicode="&#xfa;" horiz-adv-x="1128" d="M119 166q0 40 46.5 276.5t59.5 335.5q2 8 2 27q0 40 -13 67t-40 27q-10 0 -16 -2l-19 33q33 41 95.5 72.5t121.5 31.5q39 0 57.5 -26.5t18.5 -69.5q0 -54 -26 -168q-15 -73 -44 -195t-43 -195t-14 -124q0 -63 24.5 -95t80.5 -32q83 0 175 60.5t150 138.5q5 30 34.5 190 t47.5 268v19q0 94 -51 94q-10 0 -16 -2l-19 33q33 41 95.5 72.5t121.5 31.5q39 0 57.5 -26.5t18.5 -69.5q0 -66 -29 -168l-100 -539q-4 -32 -4 -45q0 -48 23.5 -68t56.5 -20q25 0 45 8l14 -36q-43 -37 -112.5 -67t-114.5 -30q-113 0 -113 121q0 65 29 146q-30 -43 -74 -87.5 t-100 -87.5t-123 -70.5t-129 -27.5q-71 0 -122.5 53t-51.5 146zM543 1190q56 16 102 52.5t76 76.5t57.5 77.5t60 62t70.5 24.5h123l-106 -140q-143 -186 -314 -186q-22 0 -45.5 13t-23.5 20z" />
<glyph unicode="&#xfb;" horiz-adv-x="1128" d="M119 166q0 40 46.5 276.5t59.5 335.5q2 8 2 27q0 40 -13 67t-40 27q-10 0 -16 -2l-19 33q33 41 95.5 72.5t121.5 31.5q39 0 57.5 -26.5t18.5 -69.5q0 -54 -26 -168q-15 -73 -44 -195t-43 -195t-14 -124q0 -63 24.5 -95t80.5 -32q83 0 175 60.5t150 138.5q5 30 34.5 190 t47.5 268v19q0 94 -51 94q-10 0 -16 -2l-19 33q33 41 95.5 72.5t121.5 31.5q39 0 57.5 -26.5t18.5 -69.5q0 -66 -29 -168l-100 -539q-4 -32 -4 -45q0 -48 23.5 -68t56.5 -20q25 0 45 8l14 -36q-43 -37 -112.5 -67t-114.5 -30q-113 0 -113 121q0 65 29 146q-30 -43 -74 -87.5 t-100 -87.5t-123 -70.5t-129 -27.5q-71 0 -122.5 53t-51.5 146zM326 1190q42 9 97.5 57t99.5 100t88.5 94t68.5 42h33h16q24 0 47 -27.5t43.5 -68t41 -82t49 -75t59.5 -40.5q-2 -6 -30.5 -19.5t-51.5 -13.5q-90 0 -142.5 65.5t-58.5 168.5q-8 -19 -11.5 -26t-16 -32.5 t-23.5 -39.5t-29.5 -38t-39 -38.5t-46.5 -30t-58 -22.5t-67 -7q-22 0 -45.5 13t-23.5 20z" />
<glyph unicode="&#xfc;" horiz-adv-x="1128" d="M119 166q0 40 46.5 276.5t59.5 335.5q2 8 2 27q0 40 -13 67t-40 27q-10 0 -16 -2l-19 33q33 41 95.5 72.5t121.5 31.5q39 0 57.5 -26.5t18.5 -69.5q0 -54 -26 -168q-15 -73 -44 -195t-43 -195t-14 -124q0 -63 24.5 -95t80.5 -32q83 0 175 60.5t150 138.5q5 30 34.5 190 t47.5 268v19q0 94 -51 94q-10 0 -16 -2l-19 33q33 41 95.5 72.5t121.5 31.5q39 0 57.5 -26.5t18.5 -69.5q0 -66 -29 -168l-100 -539q-4 -32 -4 -45q0 -48 23.5 -68t56.5 -20q25 0 45 8l14 -36q-43 -37 -112.5 -67t-114.5 -30q-113 0 -113 121q0 65 29 146q-30 -43 -74 -87.5 t-100 -87.5t-123 -70.5t-129 -27.5q-71 0 -122.5 53t-51.5 146zM383 1313q0 46 30.5 79t71.5 33t72 -33t31 -79q0 -47 -30.5 -80t-72.5 -33t-72 33t-30 80zM760 1313q0 46 30.5 79t71.5 33t72 -33t31 -79q0 -47 -30.5 -80t-72.5 -33t-72 33t-30 80z" />
<glyph unicode="&#xff;" horiz-adv-x="921" d="M-240 -418q0 42 15 88q4 -25 43 -40t84 -15q183 0 432 358q-15 6 -26 17.5t-17.5 21t-11.5 26.5t-6.5 25t-4 26.5t-2.5 21.5l-86 587q-8 64 -22 108t-30.5 62.5t-29 25.5t-24.5 7l-13 -2l-20 35q42 40 99 70t104 30q51 0 72.5 -28t21.5 -97q-2 -70 82 -600q6 -50 45 -141 q120 192 215.5 385.5t95.5 288.5q0 49 -23 89t-67 50q26 45 102 45q123 0 123 -129q0 -90 -51.5 -215t-109.5 -227q-60 -103 -119 -200t-138 -218t-154 -219.5t-151.5 -184.5t-147 -134t-124.5 -48q-71 0 -113.5 36t-42.5 95zM272 1313q0 46 31 79t72 33t71.5 -33t30.5 -79 q0 -47 -30 -80t-72 -33t-72.5 33t-30.5 80zM649 1313q0 46 31 79t72 33t71.5 -33t30.5 -79q0 -47 -30 -80t-72 -33t-72.5 33t-30.5 80z" />
<glyph unicode="&#x152;" horiz-adv-x="1683" d="M98 516q0 178 60.5 335t162.5 266t237.5 172t283.5 63h442l346 6q26 -41 15.5 -124.5t-33.5 -103.5h-39q0 46 -53 78t-136 35l-170 6q-23 -133 -43 -225q-39 -173 -61 -279h311q27 0 47 6.5t26 13.5l7 7q0 -16 -4 -41q-4 -24 -14.5 -42.5t-21.5 -30t-30 -20t-32 -12.5 t-36.5 -6t-33.5 -2h-33q-158 0 -211 -2q-67 -349 -84 -475q-3 -6 0 -12h379q27 0 46.5 6.5t25.5 13.5l6 7q2 -16 -4 -41q-7 -33 -24 -56t-35.5 -34.5t-48 -17t-46.5 -6.5t-47 -1h-657q-103 0 -193 34t-158 98t-107.5 163t-39.5 221zM326 578q0 -208 105.5 -338.5 t275.5 -130.5h86l6 30l178 951q19 106 12 161h-192q-78 0 -161 -51t-152 -137.5t-113.5 -215t-44.5 -269.5z" />
<glyph unicode="&#x153;" horiz-adv-x="1572" d="M84 369q2 142 47 267t120 213t176.5 138.5t213.5 50.5q151 0 233 -116q23 -30 27 -68q12 24 39 51q66 63 143.5 98t153.5 35q134 0 202 -58.5t66 -158.5q-2 -106 -82.5 -186.5t-205 -121t-269.5 -40.5h-41q-4 -32 -4 -53q-1 -71 21.5 -135.5t75 -110t126.5 -45.5 q85 0 175.5 48t160.5 132q4 -86 -57.5 -165.5t-156 -125t-189.5 -45.5q-91 0 -177 54.5t-116 136.5q-10 -23 -47 -60q-144 -131 -330 -131q-76 0 -133.5 27t-89.5 67.5t-51.5 96.5t-25.5 104t-5 101zM281 403q-3 -149 42.5 -239t133.5 -90q112 0 201 154t90 378 q3 150 -48 239t-145 89q-63 0 -113 -44t-78.5 -107.5t-48 -141t-26.5 -136t-8 -102.5zM918 547q61 5 108 12.5t103 26t93 46t62.5 74.5t26.5 109q2 43 -22 76t-81 33q-54 0 -105 -36t-87.5 -93t-61.5 -121.5t-36 -126.5z" />
<glyph unicode="&#x178;" horiz-adv-x="1003" d="M51 1313l21 35q65 28 141 28q64 0 94 -37q25 -117 85 -309.5t95 -275.5q31 41 60 80l225 301q71 98 35 178l20 35q67 28 119 28q50 0 101 -28q-7 -36 -64 -129t-106 -152l-324 -405q-39 -195 -59 -310q-49 -247 -54 -352h-219l6 33q64 313 70 350q30 157 43 233 q-15 18 -31 64l-116 344q-16 42 -32 90t-24 71.5t-18.5 49t-19 37.5t-20 23t-28.5 18zM254 1599q0 46 30.5 79.5t71.5 33.5t72 -33.5t31 -79.5q0 -47 -30.5 -79.5t-72.5 -32.5t-72 32.5t-30 79.5zM733 1599q0 46 31 79.5t72 33.5t71.5 -33.5t30.5 -79.5q0 -47 -30 -79.5 t-72 -32.5t-72.5 32.5t-30.5 79.5z" />
<glyph unicode="&#x2c6;" horiz-adv-x="823" d="M61 1190q42 9 98 57t100 100t88.5 94t68.5 42h33h16q24 0 47 -27.5t43.5 -68t41 -82t49 -75t59.5 -40.5q-2 -6 -30.5 -19.5t-51.5 -13.5q-90 0 -142.5 65.5t-58.5 168.5q-8 -19 -11.5 -26t-16 -32.5t-23.5 -39.5t-29.5 -38t-39 -38.5t-46.5 -30t-58 -22.5t-67 -7 q-22 0 -46 13t-24 20z" />
<glyph unicode="&#x2dc;" horiz-adv-x="778" d="M37 1241q2 1 12.5 7.5t14.5 9t14.5 8.5t16.5 8.5t16 6.5t18 6t18 3.5t19 1.5q36 0 131.5 -34.5t175.5 -34.5q92 0 169 41t110 122q-93 -55 -154 -55q-41 0 -141.5 35t-157.5 35q-86 0 -159 -40t-103 -120z" />
<glyph unicode="&#x2000;" horiz-adv-x="899" />
<glyph unicode="&#x2001;" horiz-adv-x="1798" />
<glyph unicode="&#x2002;" horiz-adv-x="899" />
<glyph unicode="&#x2003;" horiz-adv-x="1798" />
<glyph unicode="&#x2004;" horiz-adv-x="599" />
<glyph unicode="&#x2005;" horiz-adv-x="449" />
<glyph unicode="&#x2006;" horiz-adv-x="299" />
<glyph unicode="&#x2007;" horiz-adv-x="299" />
<glyph unicode="&#x2008;" horiz-adv-x="224" />
<glyph unicode="&#x2009;" horiz-adv-x="359" />
<glyph unicode="&#x200a;" horiz-adv-x="99" />
<glyph unicode="&#x2010;" d="M45 436l27 131q-1 -3 17.5 -4.5t57.5 -2.5t66.5 -1h77.5q219 0 260 7q19 4 27 9q-10 -29 -26.5 -51.5t-33 -37t-44 -25t-46 -15.5t-53 -7.5t-52 -2.5h-55.5h-20q-27 0 -90 1t-76 1q-29 0 -37 -2z" />
<glyph unicode="&#x2011;" d="M45 436l27 131q-1 -3 17.5 -4.5t57.5 -2.5t66.5 -1h77.5q219 0 260 7q19 4 27 9q-10 -29 -26.5 -51.5t-33 -37t-44 -25t-46 -15.5t-53 -7.5t-52 -2.5h-55.5h-20q-27 0 -90 1t-76 1q-29 0 -37 -2z" />
<glyph unicode="&#x2012;" d="M45 436l27 131q-1 -3 17.5 -4.5t57.5 -2.5t66.5 -1h77.5q219 0 260 7q19 4 27 9q-10 -29 -26.5 -51.5t-33 -37t-44 -25t-46 -15.5t-53 -7.5t-52 -2.5h-55.5h-20q-27 0 -90 1t-76 1q-29 0 -37 -2z" />
<glyph unicode="&#x2013;" horiz-adv-x="925" d="M45 438l27 131q-1 -3 62 -4.5t169.5 -2.5t166 -1h128.5h1h1h1h1h1h1h1h1h1h1h1h1h1h1h1h1h1h1h1h1h2q216 0 254 12l11 5q-10 -29 -26.5 -52t-33.5 -37.5t-44 -24.5t-46 -15t-54 -7.5t-53 -3t-56 -0.5h-17q-27 0 -243.5 1t-229.5 1q-29 0 -37 -2z" />
<glyph unicode="&#x2014;" horiz-adv-x="1390" d="M39 438l27 131q-1 -3 131 -4.5t341.5 -2.5t318 -1h206.5h1h1h1h1h1h1h1h1h1h1h1h1h1h1h1h1h1h1h1h1h2q216 0 254 12l11 5q-10 -29 -26.5 -52t-33.5 -37.5t-44 -24.5t-46 -15t-54 -7.5t-53 -3t-56 -0.5h-17q-27 0 -479 1t-465 1q-29 0 -37 -2z" />
<glyph unicode="&#x2018;" horiz-adv-x="428" d="M207 1149q0 83 85 188t245 195l26 -49q-105 -92 -144.5 -145.5t-39.5 -118.5q0 -58 47 -58q2 -8 2 -20q0 -49 -36.5 -77t-88.5 -28q-37 0 -66.5 32t-29.5 81z" />
<glyph unicode="&#x2019;" horiz-adv-x="428" d="M133 1079q105 92 144.5 145.5t39.5 118.5q0 58 -47 58q-2 8 -2 20q0 49 36.5 77t88.5 28q37 0 66.5 -32t29.5 -81q0 -83 -85 -188t-244 -195z" />
<glyph unicode="&#x201a;" horiz-adv-x="428" d="M-47 -254q105 92 144.5 145.5t39.5 118.5q0 58 -47 58q-2 8 -2 20q0 49 36.5 77t88.5 28q37 0 66.5 -32t29.5 -81q0 -83 -85 -188t-244 -195z" />
<glyph unicode="&#x201c;" horiz-adv-x="806" d="M207 1149q0 83 85 188t245 195l26 -49q-105 -92 -144.5 -145.5t-39.5 -118.5q0 -58 47 -58q2 -8 2 -20q0 -49 -36.5 -77t-88.5 -28q-37 0 -66.5 32t-29.5 81zM586 1149q0 83 85 188t244 195l27 -49q-105 -92 -144.5 -145.5t-39.5 -118.5q0 -58 47 -58q2 -8 2 -20 q0 -49 -36.5 -77t-88.5 -28q-37 0 -66.5 32t-29.5 81z" />
<glyph unicode="&#x201d;" horiz-adv-x="806" d="M133 1085q104 91 144 145.5t40 119.5q0 57 -47 57q-2 8 -2 20q0 49 36.5 77t88.5 28q37 0 66.5 -32t29.5 -81q0 -83 -85 -188t-244 -195zM512 1085q104 91 144 145.5t40 119.5q0 57 -47 57q-2 8 -2 20q0 49 36.5 77t88.5 28q37 0 66.5 -32t29.5 -81q0 -83 -85 -188 t-244 -195z" />
<glyph unicode="&#x201e;" horiz-adv-x="788" d="M-47 -254q105 92 144.5 145.5t39.5 118.5q0 58 -47 58q-2 8 -2 20q0 49 36.5 77t88.5 28q37 0 66.5 -32t29.5 -81q0 -83 -85 -188t-244 -195zM313 -254q105 92 145 145.5t40 118.5q0 58 -47 58q-2 8 -2 20q0 49 36 77t88 28q37 0 67 -32t30 -81q0 -83 -85 -188t-245 -195 z" />
<glyph unicode="&#x2022;" horiz-adv-x="868" d="M178 506q0 104 74 178t180 74q104 0 179 -74t75 -178q0 -105 -74.5 -179.5t-179.5 -74.5q-106 0 -180 74t-74 180z" />
<glyph unicode="&#x2026;" horiz-adv-x="1357" d="M158 84q0 44 32 76.5t78 32.5q44 0 76.5 -32.5t32.5 -76.5q0 -46 -32.5 -78.5t-76.5 -32.5q-46 0 -78 32.5t-32 78.5zM578 84q0 44 32 76.5t78 32.5q44 0 76.5 -32.5t32.5 -76.5q0 -46 -32.5 -78.5t-76.5 -32.5q-46 0 -78 32.5t-32 78.5zM987 84q0 44 32.5 76.5 t78.5 32.5q44 0 76 -32.5t32 -76.5q0 -46 -32 -78.5t-76 -32.5q-46 0 -78.5 32.5t-32.5 78.5z" />
<glyph unicode="&#x202f;" horiz-adv-x="359" />
<glyph unicode="&#x2039;" horiz-adv-x="755" d="M80 506q24 21 47 41l332 319q124 121 213 121q46 0 73 -31q-19 -6 -47 -27t-46 -39l-19 -18l-285 -303q-15 -16 -35 -31.5t-33 -23.5l-12 -8q38 -29 54 -64l170 -303q40 -70 79 -84q-46 -28 -88 -28q-90 0 -166 118l-204 320z" />
<glyph unicode="&#x203a;" horiz-adv-x="755" d="M-4 55q28 -28 74 -28q84 -4 211 118l331 320l50 41q-21 21 -35 41l-205 319q-75 121 -166 121q-43 0 -88 -31q17 -6 37 -27t31 -39l12 -18l170 -303q7 -16 21 -31.5t24 -23.5l10 -8q-49 -29 -82 -64l-285 -303q-69 -70 -110 -84z" />
<glyph unicode="&#x205f;" horiz-adv-x="449" />
<glyph unicode="&#x20ac;" horiz-adv-x="1200" d="M-14 444l43 131q28 -4 106 -4q5 65 31 162h-94q-29 0 -37 -2l43 131q42 -6 131 -6q102 236 301.5 376t441.5 140q120 0 204.5 -44t84.5 -91q0 -57 -57 -98q-5 40 -78.5 75t-202.5 35q-174 0 -318.5 -112.5t-213.5 -282.5h385q217 0 257 7q19 4 27 9q-9 -26 -21.5 -46.5 t-30.5 -34.5t-33 -24.5t-40.5 -16.5t-41 -10t-47 -5.5t-45.5 -1.5h-48h-20h-379q-20 -90 -23 -164h267q227 0 270 10q13 3 20 7q-11 -29 -28 -52t-33.5 -37.5t-44.5 -24.5t-47 -15t-54 -7.5t-53 -3t-56 -0.5h-17h-222q7 -77 31 -139t69 -111.5t119 -76.5t173 -27 q54 0 146.5 28t166.5 91q-24 -119 -129 -178.5t-271 -59.5q-118 0 -210.5 36t-152 100.5t-91 150t-33.5 188.5h-111q-26 0 -34 -2z" />
<glyph unicode="&#x2122;" horiz-adv-x="1642" d="M94 817q0 53 39 207.5t39 206.5q0 46 -57 61l16 62q72 0 154 108h82l-37 -108h129q26 0 45.5 6.5t25.5 13.5l7 6q2 -6 2 -16q0 -48 -37.5 -79.5t-95.5 -31.5q-7 0 -36.5 1t-43.5 1h-15q-11 -54 -29.5 -142t-29.5 -148q-14 -68 -14 -101q0 -67 69 -67q37 0 82 16t55 29 q0 -66 -55.5 -120t-142.5 -54q-152 0 -152 149zM539 686l96 459q8 33 8 63q0 36 -12.5 57t-24.5 24l-12 3l8 41q76 37 135 37q66 0 66 -57q0 -14 -12 -60q121 121 260 121q61 0 97.5 -34t41.5 -87q117 121 260 121q64 0 100.5 -39.5t36.5 -97.5q0 -19 -2 -29l-16 -88 q-4 -19 -27 -126.5t-34 -176t-9 -112.5v-19h-149q7 59 19 122.5t29 146t25 122.5q13 63 13 92q0 41 -18 60.5t-58 19.5q-51 0 -98 -20t-78 -45q0 -1 -19 -95t-29.5 -149.5t-22 -134t-11.5 -119.5h-150q7 58 19.5 123t29.5 145t25 123q10 46 10 90q0 43 -17 62.5t-56 19.5 q-104 0 -193 -84q-2 -13 -23.5 -118.5t-37 -204t-15.5 -156.5h-155z" />
<glyph unicode="&#xe000;" horiz-adv-x="1034" d="M0 0v1034h1034v-1034h-1034z" />
<glyph unicode="&#xfb01;" horiz-adv-x="1198" d="M117 0h198q0 65 4 86q91 563 142 801q5 0 40 -3t50 -3q169 0 174 149l-3 -2q-2 -3 -7.5 -6t-13.5 -6t-21 -5.5t-29 -2.5h-178q8 16 12 47q8 53 15 88t19.5 79t27 72t38 57.5t53.5 46.5t71.5 27.5t93.5 10.5q64 0 117 -32.5t53 -78.5q0 -8 -19 -63q13 -27 41 -43.5 t58 -16.5q44 0 77 31.5t33 79.5q0 109 -93.5 173t-217.5 64q-198 0 -324 -101.5t-186 -322.5q-32 -114 -129 -122l-20 -62q67 -32 67 -135q0 -46 -10 -94l-125 -662q-4 -16 -8 -51zM748 0l2 8q149 779 149 817q0 74 -55 74q-11 0 -17 -2l-18 33q35 41 97 72.5t120 31.5 q38 0 57 -24.5t19 -65.5q0 -16 -9 -60t-21.5 -97t-14.5 -62q-1 -6 -45.5 -272t-50.5 -299q-5 -31 -8 -82t-7 -72h-198z" />
<glyph unicode="&#xfb02;" horiz-adv-x="1175" d="M117 0h198v33q0 35 4 53q91 563 142 801q5 0 40 -3t50 -3q169 0 174 149l-3 -2q-2 -3 -7.5 -6t-13.5 -6t-21 -5.5t-29 -2.5h-178q8 16 12 47q8 53 15 88t19.5 79t27 72t38 57.5t53.5 46.5t71.5 27.5t93.5 10.5t108 -25.5t72 -64.5q0 -32 -6 -72q-138 -736 -236 -1243 l-4 -31h199v31q0 103 75.5 507.5t139.5 675.5q35 95 35 183q0 83 -27 96q-105 57 -307 57q-198 0 -324 -101.5t-186 -322.5q-32 -114 -129 -122l-20 -62q67 -32 67 -135q0 -46 -10 -94l-125 -662q-4 -16 -8 -51z" />
<glyph unicode="&#xfb03;" horiz-adv-x="1658" />
</font>
</defs>
</svg>
