<?xml version="1.0" standalone="no"?>
<!DOCTYPE svg PUBLIC "-//W3C//DTD SVG 1.1//EN" "http://www.w3.org/Graphics/SVG/1.1/DTD/svg11.dtd" >
<svg xmlns="http://www.w3.org/2000/svg">
<metadata></metadata>
<defs>
<font id="fontinregular" horiz-adv-x="1132" >
<font-face units-per-em="2048" ascent="1638" descent="-410" />
<missing-glyph horiz-adv-x="634" />
<glyph horiz-adv-x="2048" />
<glyph horiz-adv-x="2048" />
<glyph unicode="&#xd;" horiz-adv-x="2048" />
<glyph horiz-adv-x="1024" />
<glyph unicode=" "  horiz-adv-x="634" />
<glyph unicode="&#x09;" horiz-adv-x="634" />
<glyph unicode="&#xa0;" horiz-adv-x="634" />
<glyph unicode="!" horiz-adv-x="540" d="M127 1454v47q68 45 131 45q46 0 77.5 -10t49 -27t25 -45.5t7 -59t-6.5 -75.5t-14 -86.5t-16.5 -100t-12.5 -108.5l-58 -723h-59l-74 1000q-4 49 -16 85t-22 47zM168 84q0 44 32.5 76.5t78.5 32.5q44 0 76 -32.5t32 -76.5q0 -46 -32 -78.5t-76 -32.5q-46 0 -78.5 32.5 t-32.5 78.5z" />
<glyph unicode="&#x22;" horiz-adv-x="802" d="M82 1118q40 36 63.5 95t31.5 115.5t15.5 109t24.5 84.5t49 32h107l-23 -165q-30 -210 -186 -271q-14 -6 -33.5 -7t-33 2t-15.5 5zM410 1118q40 36 63.5 95t31.5 115.5t15.5 109t24.5 84.5t49 32h106l-22 -165q-30 -210 -186 -271q-14 -6 -33.5 -7t-33 2t-15.5 5z" />
<glyph unicode="#" horiz-adv-x="1441" d="M92 395l14 131q0 -4 302 -8q2 24 11.5 122t14.5 144h-268q-29 0 -37 -2l14 131q0 -4 301 -8q19 226 19 305q0 45 -17 127q51 39 91 39q16 0 28 -5t19 -16t11.5 -21.5t6 -30t2 -33t0.5 -37.5q0 -35 -33 -328h271q18 214 18 305q0 50 -16 127q51 39 90 39q16 0 28 -5 t19 -16t11.5 -21.5t6 -30t2 -33t0.5 -37.5q0 -44 -32 -328h98q225 0 266 10q13 3 19 7q-6 -34 -19.5 -59t-38 -40t-45 -24t-58.5 -12.5t-59.5 -4t-65.5 -0.5h-17h-95q-5 -46 -14 -134t-14 -130h104q225 0 266 10q13 3 19 7q-6 -34 -19.5 -59t-38 -40t-45 -24t-58.5 -12.5 t-59.5 -4t-65.5 -0.5h-17h-99q-23 -214 -30 -379l-140 -30q6 55 16.5 140.5t18.5 150t13 118.5h-275q-25 -230 -31 -379l-139 -30q44 385 47 411h-264q-29 0 -37 -2zM528 518h275q6 53 28 264h-272q-2 -19 -13.5 -114.5t-17.5 -149.5z" />
<glyph unicode="$" horiz-adv-x="937" d="M129 1012q0 132 86.5 238t239.5 124q-1 28 -4.5 75.5t-4.5 66.5q45 10 58 10q10 0 18 -2.5t13.5 -7.5t9.5 -10.5t6 -15.5t3 -18t1 -21.5v-23t-1 -25.5t-1 -26q123 -8 206 -59.5t83 -136.5q0 -32 -19 -78q-6 54 -88 94.5t-184 46.5q-1 -56 -2 -206.5t-2 -223.5 q51 -31 85.5 -53t80 -56.5t75.5 -68t58 -75t41.5 -91t13.5 -104.5q0 -143 -96 -250t-254 -133l4 -199h-100q0 129 2 190q-134 1 -214.5 57.5t-80.5 127.5q0 39 24 69q12 -45 91 -81.5t174 -36.5h6q4 372 4 483q-43 28 -54 35.5t-50.5 35t-53 39.5t-45 39.5t-44 45t-33.5 47 t-29.5 55t-15.5 57.5t-7 66zM287 1067q0 -55 45 -103t129 -100q0 279 -2 375q-77 -11 -124.5 -54t-47.5 -118zM545 535q-2 -115 2 -416q160 43 160 186q0 65 -42 119t-120 111z" />
<glyph unicode="%" horiz-adv-x="1634" d="M133 1024q0 -161 76.5 -245.5t193.5 -84.5q156 0 255 103t102 254q0 156 -78.5 241.5t-200.5 85.5q-155 0 -251.5 -98.5t-96.5 -255.5zM270 1067q0 105 44 166t118 61q89 0 142 -75.5t53 -204.5q0 -107 -50.5 -172.5t-123.5 -65.5q-86 0 -134.5 79t-48.5 212zM287 0 q526 751 711.5 1026t189.5 324q38 30 82 30q61 0 61 -41q0 -18 -13 -45t-25.5 -45.5t-34 -47.5t-23.5 -32t-185.5 -262t-371 -532t-246.5 -375h-145zM901 307q0 -161 76.5 -245.5t193.5 -84.5q156 0 255 103t102 254q0 156 -78.5 242t-200.5 86q-155 0 -251.5 -99 t-96.5 -256zM1038 350q0 105 44 166.5t118 61.5q89 0 142 -76t53 -205q0 -107 -50.5 -172.5t-123.5 -65.5q-86 0 -134.5 79t-48.5 212z" />
<glyph unicode="&#x26;" horiz-adv-x="1554" d="M127 360q0 -160 113.5 -273.5t300.5 -113.5q260 0 413 150q92 -72 188 -111t179 -39q104 0 160.5 46t56.5 112q-63 -29 -123 -29q-135 0 -340 181q120 224 137 602q18 0 50 -1t43 -1q65 0 111 29t46 79l-4 41q-11 -24 -72 -24h-282l-21 -29q19 -84 19 -152 q0 -288 -98 -477q-217 211 -398 488q27 17 53 34t86.5 67t103 98t77.5 117t35 134q0 115 -90.5 186.5t-235.5 71.5q-180 0 -285.5 -94t-105.5 -246q0 -70 39.5 -182t109.5 -233q-124 -90 -195 -200.5t-71 -230.5zM315 475q0 152 119 248q206 -325 440 -535q-96 -77 -215 -77 q-142 0 -243 111.5t-101 252.5zM424 1274q0 80 51.5 125t136.5 45q94 0 147.5 -52.5t53.5 -146.5q0 -59 -29 -117t-76 -103t-79.5 -70t-65.5 -46q-139 233 -139 365z" />
<glyph unicode="'" horiz-adv-x="475" d="M82 1118q40 36 63.5 95t31.5 115.5t15.5 109t24.5 84.5t49 32h107l-23 -165q-30 -210 -186 -271q-14 -6 -33.5 -7t-33 2t-15.5 5z" />
<glyph unicode="(" horiz-adv-x="675" d="M131 485q0 -244 68 -477t182.5 -380.5t239.5 -147.5q-10 0 -43 47.5t-78 141t-87 211.5t-71 280t-29 325q0 113 14.5 222t38.5 196t54 164.5t61 133.5t59.5 97t49.5 61.5t31 20.5q-137 0 -251 -128.5t-176.5 -333.5t-62.5 -433z" />
<glyph unicode=")" horiz-adv-x="675" d="M55 -520q10 0 43 47.5t77.5 141t86.5 211.5t71 280t29 325q0 155 -27.5 302.5t-67.5 251t-84.5 183.5t-78.5 119t-49 39q137 0 251 -128.5t176.5 -333.5t62.5 -433q0 -244 -68 -477t-182.5 -380.5t-239.5 -147.5z" />
<glyph unicode="*" horiz-adv-x="823" d="M4 1112q5 29 17.5 51.5t26.5 37t38.5 24.5t43 15t51 7.5t51.5 3t55 0.5h14l-4 6q-123 224 -158 238q34 12 60 12q32 0 60 -14t54.5 -45t41.5 -53.5t42 -67.5l9 -22q4 16 8 22q127 204 127 250v4q59 -48 59 -113q0 -28 -13.5 -65.5t-24.5 -59.5t-38 -69l-14 -25 q-2 -4 -6 -6h61q222 0 246 17q-6 -37 -23 -63.5t-38.5 -41t-54.5 -22.5t-61.5 -10.5t-68.5 -2.5h-59l8 -12q12 -20 30 -51t28.5 -49t25 -41.5t23.5 -37.5t19 -28t17 -21t13 -10q-35 -12 -62 -12q-34 0 -62 13.5t-53.5 45.5t-40 55t-41.5 72q-3 6 -5 9l-9 24l-10 -24 q-98 -170 -113 -206q-8 -22 -8 -34v-4q-59 48 -59 115q0 31 14 69.5t26.5 62t41.5 72.5q-39 2 -111 2q-151 0 -174 -18z" />
<glyph unicode="+" horiz-adv-x="964" d="M113 457v131q0 -8 299 -8v26q0 223 -10 264q-3 13 -7 19q45 10 66 10q17 0 29.5 -4t21 -9t14 -17t8.5 -19.5t4 -25.5t1.5 -26.5t0 -31t-0.5 -31.5q0 -5 -1 -57.5t-1 -97.5h43q218 0 258 7q18 4 26 9q-6 -34 -19.5 -59t-37.5 -39.5t-44.5 -23.5t-58.5 -12.5t-59 -4 t-64 -0.5h-20h-26q-3 -147 -3 -281q0 -25 3 -37h-132q9 0 9 318q-49 0 -110 0.5t-104 1t-48 0.5q-29 0 -37 -2z" />
<glyph unicode="," horiz-adv-x="423" d="M25 -246q135 129 135 226q0 52 -16 71t-44 19q-6 49 27 86t78 37q58 0 87.5 -34.5t29.5 -97.5q0 -79 -69 -177.5t-192 -178.5z" />
<glyph unicode="-" horiz-adv-x="618" d="M59 436v131q0 -8 222 -8q218 0 258 7q18 4 26 9q-6 -34 -19.5 -59t-37.5 -39.5t-44.5 -23.5t-58.5 -12.5t-59 -4t-64 -0.5h-20q-27 0 -90 1t-76 1q-29 0 -37 -2z" />
<glyph unicode="." horiz-adv-x="423" d="M102 84q0 44 32.5 76.5t78.5 32.5q44 0 76.5 -32.5t32.5 -76.5q0 -46 -32.5 -78.5t-76.5 -32.5q-46 0 -78.5 32.5t-32.5 78.5z" />
<glyph unicode="/" horiz-adv-x="595" d="M-53 -500q183 732 290 1245t99 596q9 14 53.5 32t83.5 18q44 0 47 -54q3 -24 -3.5 -57t-16 -67.5t-11.5 -43.5q0 -1 -60 -251t-122.5 -515.5t-123.5 -539.5t-74 -363h-162z" />
<glyph unicode="0" horiz-adv-x="1165" d="M102 567q0 -153 35.5 -270.5t96.5 -187t137 -104t164 -34.5q29 0 43 2q229 23 357 200t128 441q0 147 -33.5 261t-93.5 185t-138.5 107.5t-172.5 36.5q-159 0 -278.5 -83.5t-182 -227t-62.5 -326.5zM281 651q0 170 71.5 289.5t173.5 134.5q3 0 11 1t12 1 q142 0 237 -151.5t95 -388.5q0 -194 -84.5 -325t-196.5 -134q-138 0 -226 162t-93 411z" />
<glyph unicode="1" horiz-adv-x="659" d="M41 1057l348 151h31l51 -86q-6 -122 -6 -157q0 -347 4 -811q0 -76 16 -154h-202v8l6 864q3 109 -37 140l-174 -56z" />
<glyph unicode="2" horiz-adv-x="917" d="M82 0h596q93 0 130.5 34t37.5 83q0 26 -6 47q-19 -19 -54.5 -22t-189.5 -3h-350q11 9 30.5 24t75 64.5t106 100.5t112.5 125.5t106.5 145.5t75 155t30.5 159q0 56 -20 105.5t-61.5 92.5t-115 68t-169.5 25q-85 0 -159 -21.5t-122.5 -65t-48.5 -99.5q0 -41 26 -66t63 -24 t67 30v15q0 51 45 90t108 39q90 0 135 -73t45 -179q0 -92 -50.5 -203.5t-123 -205.5t-144.5 -173.5t-123 -128.5l-52 -49v-90z" />
<glyph unicode="3" horiz-adv-x="901" d="M41 -80q32 -4 53 -4q65 0 129 11t129.5 38t115 67t82 103t34.5 141q0 52 -9.5 95t-23.5 72.5t-37.5 52.5t-44.5 36.5t-51.5 23.5t-51.5 14.5t-51 9.5l23 55q2 0 4 2q92 42 151.5 118.5t59.5 159.5q0 45 -15 85.5t-54.5 71t-98.5 30.5q-66 0 -113 -40t-41 -104 q-40 -30 -75 -29t-58.5 26.5t-23.5 62.5q0 80 93.5 133t221.5 53q93 0 165.5 -23t114.5 -61.5t63.5 -82.5t21.5 -91q0 -89 -66.5 -166.5t-185.5 -138.5q47 -7 83.5 -17.5t78.5 -33.5t70 -56.5t46.5 -89.5t18.5 -129q0 -100 -41 -183t-107 -137.5t-152 -92.5t-174 -55 t-175 -17q-27 0 -48 9.5t-32 22.5t-18 26t-9 22z" />
<glyph unicode="4" horiz-adv-x="1024" d="M61 233q42 129 159.5 347.5t243 403t185.5 224.5h125l-4 -86q-6 -122 -6 -157q-2 -282 0 -623q112 0 154 4t59 21q37 -162 -162 -164h-49q0 -149 2 -217q0 -76 16 -154h-202v8l2 363h-496zM242 342h342l4 506q2 80 14 156q-63 -69 -182 -285t-178 -377z" />
<glyph unicode="5" horiz-adv-x="907" d="M92 -80q32 -4 53 -4q80 0 153 22t134.5 66.5t99.5 120t41 172.5q0 72 -17.5 130.5t-44 95t-63.5 62.5t-71.5 38.5t-71.5 17.5q-41 6 -78.5 6.5t-54.5 -1.5l-18 -3l-19 33l33 475l33 27h331h51q114 0 145 3.5t48 20.5q37 -162 -162 -164h-340l-12 -288q526 0 526 -414 q0 -100 -34.5 -185t-92 -143t-133.5 -99t-159 -60t-168 -19q-27 0 -48 9.5t-32 22.5t-18 26t-9 22z" />
<glyph unicode="6" horiz-adv-x="1105" d="M141 569q0 -88 14 -171.5t46 -161.5t78.5 -135.5t117 -92.5t156.5 -35q102 0 187.5 41.5t141.5 111.5t86.5 160.5t30.5 190.5q0 185 -95 278t-240 93q-168 0 -316 -107q10 130 43.5 230t83.5 159t109 89t125 30q75 0 156 -34t110 -78q6 23 6 59q0 46 -31 81t-80 54 t-100.5 28t-101.5 9q-71 0 -141.5 -25t-141 -85t-124 -148.5t-87 -228.5t-33.5 -312zM344 633v53q35 22 99.5 37.5t117.5 15.5q117 0 181.5 -89.5t64.5 -252.5q0 -151 -53.5 -235t-151.5 -84q-70 0 -122.5 50.5t-81 134.5t-41.5 176.5t-13 193.5z" />
<glyph unicode="7" horiz-adv-x="851" d="M72 1157q-1 -21 11.5 -52t40 -52.5t88.5 -37.5t148 -16q97 0 161.5 6.5t80.5 12.5l16 6l-407 -944q-50 -119 -79 -162t-58 -55q21 -16 48.5 -24.5t61.5 -7t68 31.5t57 88l514 1192l-32 35h-469h-51q-114 0 -145 3.5t-48 20.5q-5 -24 -6 -45z" />
<glyph unicode="8" horiz-adv-x="1048" d="M133 291q0 84 28 156.5t73.5 121t84.5 77.5t80 50q-109 85 -170 163.5t-61 168.5q0 153 104 246.5t283 93.5q145 0 235.5 -71.5t90.5 -186.5q0 -52 -19 -102.5t-45 -86t-62 -69t-61.5 -51.5t-50.5 -33q58 -43 94 -71t82.5 -71.5t72.5 -80t45 -83t19 -93.5 q0 -172 -130 -284t-324 -112q-52 0 -101.5 10t-99 34t-86 59t-59.5 90.5t-23 124.5zM285 332q0 -111 67 -179.5t168 -70.5q92 -1 168 66t76 149q0 43 -20 85t-63.5 85t-80.5 74t-100 79l-12 9l-10 7.5t-11 8.5q-182 -97 -182 -313zM348 1096q0 -69 59 -134t171 -147 q25 13 48 31.5t49.5 48.5t42 74.5t15.5 97.5q0 94 -53.5 146.5t-147.5 52.5q-85 0 -134.5 -44.5t-49.5 -125.5z" />
<glyph unicode="9" horiz-adv-x="1122" d="M125 735q-10 -193 79.5 -296.5t231.5 -108.5q84 -5 172.5 22.5t163.5 81.5q-24 -261 -126 -386.5t-247 -119.5q-74 5 -148.5 38t-103.5 75q-6 -24 -6 -47q-4 -47 22.5 -83t73 -56.5t96 -31.5t101.5 -13q73 -4 143 17t140 75.5t124.5 138.5t92 216t45.5 298 q5 116 -14 224.5t-62.5 203t-123.5 155t-187 66.5q-135 6 -241 -58.5t-163 -172t-63 -238.5zM317 825q4 132 62 206t151 69q73 -4 125.5 -63.5t78.5 -153.5t36 -193t6 -201q-38 -23 -110.5 -38t-124.5 -11q-115 4 -174 108t-50 277z" />
<glyph unicode=":" horiz-adv-x="528" d="M156 86q0 48 33.5 81.5t82.5 33.5q47 0 81 -34t34 -81q0 -49 -33.5 -83t-81.5 -34q-49 0 -82.5 33.5t-33.5 83.5zM156 676q0 48 33.5 81.5t82.5 33.5q47 0 81 -34t34 -81q0 -49 -33.5 -83t-81.5 -34q-49 0 -82.5 33.5t-33.5 83.5z" />
<glyph unicode=";" horiz-adv-x="528" d="M47 -246q135 129 135 226q0 52 -16 71t-43 19q-6 49 26.5 86t77.5 37q58 0 87.5 -34.5t29.5 -97.5q0 -80 -68.5 -178t-191.5 -178zM123 670q0 44 32 76t78 32q44 0 76.5 -32t32.5 -76q0 -46 -32.5 -78.5t-76.5 -32.5q-46 0 -78 32.5t-32 78.5z" />
<glyph unicode="&#x3c;" horiz-adv-x="755" d="M80 506q29 -27 45 -45l272 -322q36 -43 104 -65.5t128 -22.5h30q-21 9 -43 27.5t-34 32.5l-11 14l-231 313q-14 16 -32 33t-29 26l-11 9q43 28 68 63l227 303q55 70 96 84h-30q-59 0 -130 -23.5t-110 -66.5l-268 -319z" />
<glyph unicode="=" horiz-adv-x="983" d="M113 293v131q0 -8 467 -8q218 0 258 7q19 4 26 9q-6 -34 -19.5 -59t-37.5 -39.5t-44.5 -23.5t-58.5 -12.5t-59 -4t-64 -0.5h-20q-27 0 -212.5 1t-198.5 1q-29 0 -37 -2zM113 600v131q0 -8 467 -8q218 0 258 7q18 4 26 9q-6 -34 -19.5 -59t-37.5 -39.5t-44.5 -23.5 t-58.5 -12.5t-59 -4t-64 -0.5h-20q-27 0 -212.5 1t-198.5 1q-29 0 -37 -2z" />
<glyph unicode="&#x3e;" horiz-adv-x="755" d="M82 51q21 9 43 27.5t33 32.5l12 14l231 313q14 16 32 33t29 26l11 9q-42 28 -67 63l-228 303q-55 70 -96 84h31q59 0 129.5 -23.5t109.5 -66.5l271 -319l39 -41q-30 -27 -46 -45l-272 -322q-36 -43 -103.5 -65.5t-127.5 -22.5h-31z" />
<glyph unicode="?" horiz-adv-x="849" d="M33 1296q0 115 100 182.5t250 67.5q179 0 280 -105t101 -274q0 -88 -47 -176t-114 -159t-133.5 -138.5t-113.5 -137t-47 -130.5q0 -57 47 -92l-41 -23q-59 27 -101 72.5t-42 110.5q0 81 43 163.5t104 150.5t122 133t104 136.5t43 136.5q0 226 -211 226q-63 0 -111.5 -39 t-48.5 -109q0 -24 10 -57q-28 -43 -88 -43q-54 0 -80 32.5t-26 71.5zM205 84q0 44 32.5 76.5t77.5 32.5q44 0 76.5 -32.5t32.5 -76.5q0 -46 -32.5 -78.5t-76.5 -32.5q-46 0 -78 32.5t-32 78.5z" />
<glyph unicode="@" horiz-adv-x="1847" d="M111 406q0 191 70 365t187.5 300.5t280.5 201.5t342 75q204 0 370.5 -92.5t262.5 -257t96 -367.5q0 -130 -38 -254.5t-103 -220t-158 -153.5t-196 -58q-90 0 -141 55.5t-42 173.5q-49 -98 -123.5 -147.5t-148.5 -49.5q-122 0 -211.5 121.5t-89.5 282.5q0 140 47 263 t127 208.5t187.5 134.5t226.5 49q93 0 188 -30q-10 -81 -15 -181.5t-7.5 -266t-3.5 -210.5v-30q0 -43 0.5 -64.5t3 -55.5t8.5 -51t17 -36t28.5 -27t42.5 -8q67 0 130 67t103.5 184t40.5 251q0 175 -86.5 324t-236.5 236t-328 87q-194 0 -350 -100t-244 -276.5t-88 -393.5 q0 -287 148 -483.5t389 -239.5q14 -4 49 -4q60 0 78 12q-33 -121 -189 -121q-126 0 -243 67.5t-199.5 177t-132 252.5t-49.5 290zM653 416q0 -117 64.5 -204t150.5 -87q92 0 162 94l27 727q-137 0 -240 -85q-164 -137 -164 -445z" />
<glyph unicode="A" horiz-adv-x="1208" d="M10 0l465 1221q12 40 31 69.5t37.5 45.5t45 27.5t44.5 15.5t45 8.5t39 7.5q12 -59 49 -174l360 -1057q24 -89 72 -164h-248q-5 46 -14 70l-137 401h-475l-156 -444q-2 -7 -3.5 -16t-2.5 -11h-152zM358 569h406l-199 584z" />
<glyph unicode="B" horiz-adv-x="1138" d="M174 1313l14 35l363 10h21q85 0 154 -22q78 -24 124.5 -67t71 -95.5t24.5 -108.5q0 -91 -52.5 -165.5t-145.5 -129.5q129 -38 208.5 -124t79.5 -232q0 -189 -132 -301.5t-355 -112.5h-324l2 139v946q0 26 -1 49t-3.5 41.5t-4 32.5t-6.5 28t-6.5 20.5t-8 18t-7.5 14 t-8 13.5zM432 702q-1 -134 -1 -245q0 -223 5 -359h131q143 0 215 72.5t72 175.5q0 166 -93.5 256t-242.5 96zM434 797h109q61 0 137 -13q92 88 92 224q0 111 -66 175q-64 62 -157 62h-6l-101 -2q0 -131 -2 -219q-6 -222 -6 -227z" />
<glyph unicode="C" horiz-adv-x="1247" d="M106 645q0 211 81.5 376.5t231 258t343.5 92.5q131 0 248 -50.5t151 -119.5q0 -36 -40 -100.5t-89 -85.5l-33 26q0 22 -15.5 55t-45 68t-83 59.5t-118.5 24.5q-82 0 -150.5 -28t-115 -76.5t-78.5 -115t-46.5 -140.5t-14.5 -156q0 -97 18 -187t55 -169t90.5 -137.5 t129.5 -92.5t166 -34q100 0 207 52t159 146q8 -16 8 -43q0 -87 -63 -155t-168.5 -104t-233.5 -36q-141 0 -254.5 51.5t-187.5 142t-113 212.5t-39 266z" />
<glyph unicode="D" horiz-adv-x="1386" d="M174 1313l14 35l463 10h15q90 0 174 -22q91 -24 171.5 -77t140 -128t94 -182t34.5 -234q0 -150 -44.5 -281.5t-124 -227.5t-196.5 -151t-256 -55h-434q2 35 2 96v43v930q0 54 -2 88.5t-14.5 80.5t-36.5 75zM432 508q0 -230 6 -399h246q68 0 134.5 36t119 99.5t85.5 158.5 t34 205v10q-1 170 -65 314q-66 148 -182 232q-109 79 -238 79h-15l-115 -4q0 -8 -5 -290.5t-5 -440.5z" />
<glyph unicode="E" horiz-adv-x="1024" d="M174 1313l14 35h308l350 6q24 -24 34 -76q8 -40 8 -75q0 -11 -1 -21q-3 -44 -15 -56h-38q-9 46 -69.5 78t-146.5 35l-174 6q-14 -243 -14 -499h322q28 0 47 6t23 13l5 7q4 -16 4 -41q0 -24 -7 -42.5t-16 -30t-27 -20t-30.5 -12.5t-36 -6t-34 -2h-33.5q-2 0 -50.5 1 t-90.5 2q-21 0 -40.5 0.5t-37.5 -0.5v-84q0 -174 6 -396q0 -4 4 -12h389q28 0 47 6.5t24 13.5l5 7q4 -16 4 -41q0 -28 -8 -48.5t-24.5 -32.5t-32 -19.5t-40.5 -10.5t-39.5 -3.5t-39.5 -0.5h-498l2 139v946q0 26 -1 49t-3.5 41.5t-4 32.5t-6.5 28t-6.5 20.5t-8 18t-7.5 14 t-8 13.5z" />
<glyph unicode="F" horiz-adv-x="972" d="M174 1313l14 35h310l350 6q24 -24 34 -76q8 -40 8 -75q0 -11 -1 -21q-3 -44 -15 -56h-38q-9 46 -69 78t-146 35l-177 6q-14 -243 -14 -499h322q28 0 47 6t23 13l5 7q4 -16 4 -41q0 -24 -7 -42.5t-16 -30t-27 -20t-30.5 -12.5t-36 -6t-34 -2h-33.5q-2 0 -50.5 1t-90.5 2 q-21 0 -40.5 0.5t-37.5 -0.5v-84q0 -174 6 -396q0 -81 17 -141h-226l2 139v946q0 26 -1 49t-3.5 41.5t-4 32.5t-6.5 28t-6.5 20.5t-8 18t-7.5 14t-8 13.5z" />
<glyph unicode="G" horiz-adv-x="1323" d="M106 645q0 211 81.5 376.5t231 258t343.5 92.5h2q131 0 248 -50.5t151 -119.5q0 -36 -40 -100.5t-89 -85.5l-33 26q0 17 -9 42t-30 54t-50.5 53.5t-75.5 41t-99 16.5q-174 0 -285.5 -129t-117.5 -370q0 -125 26 -232t69.5 -182.5t101.5 -129t123 -79t132 -25.5 q30 0 77.5 8t79.5 16l32 7v158q0 30 -1.5 55.5t-3 43t-6 35t-7 26.5t-9 21.5t-8.5 16t-9.5 15t-8.5 12.5l14 35q63 27 141 27q63 0 117 -25q-11 -232 -14 -324l2 -186q-33 -4 -58 -10l-32.5 -6.5t-40.5 -8.5t-43 -8.5t-50.5 -9t-52 -8.5t-58 -7.5t-57 -5.5t-61 -4.5 t-59.5 -1.5q-110 0 -211 46t-180 130t-126 213t-47 283z" />
<glyph unicode="H" horiz-adv-x="1546" d="M174 1313l14 35q64 26 142 26q64 0 116 -24q-15 -329 -20 -615h690q2 152 2 352q0 30 -1.5 55.5t-3 43t-6.5 35.5t-6.5 26.5t-8.5 22t-8.5 16t-9.5 14.5l-9 13l14 35q62 26 140 26q63 0 117 -24q-20 -458 -19 -809q0 -494 22 -541h-219q-6 35 -6 119q0 1 0.5 79t1 200 t0.5 231h-690v-88q0 -492 23 -541h-226q4 136 4 1087q0 30 -1.5 55.5t-3 43t-6.5 35.5t-6.5 26.5t-8.5 22t-8.5 16t-10.5 14.5z" />
<glyph unicode="I" horiz-adv-x="653" d="M174 1315l14 35q64 26 142 26q64 0 116 -24q-20 -458 -20 -811q0 -492 23 -541h-226q4 136 4 1090q0 30 -1.5 55.5t-3 43t-6 35t-7 26.5t-9 21.5t-8.5 16t-9.5 15t-8.5 12.5z" />
<glyph unicode="J" horiz-adv-x="643" d="M-231 -252q0 38 25.5 63t72.5 25q21 0 45 -6q11 -84 106 -84q116 0 162.5 92t46.5 289q0 881 -4 963q0 30 -1.5 55.5t-3 43t-6 35t-7 26.5t-9 21.5t-8.5 16t-9.5 15t-8.5 12.5l14 35q64 26 142 26q64 0 116 -24q-20 -458 -20 -811q0 -57 1 -212.5t1 -207.5 q-1 -99 -30 -183.5t-77.5 -143.5t-111.5 -100.5t-131 -61t-137 -19.5q-78 0 -123 41.5t-45 93.5z" />
<glyph unicode="K" horiz-adv-x="1189" d="M174 1315l14 35q64 26 142 26q64 0 116 -24q-15 -338 -20 -639l424 467q45 48 45 96q0 19 -10 39l14 35q56 22 139 22q92 0 115 -20q-15 -28 -27.5 -47.5t-25 -38.5t-35.5 -45t-42.5 -47.5t-64 -67.5t-82.5 -84t-116 -117t-146 -149q38 -50 200.5 -269t263.5 -351 t112 -136h-285q-96 153 -221 333.5t-211 278.5l-47 58v-129q0 -492 23 -541h-226q4 136 4 1090q0 30 -1.5 55.5t-3 43t-6 35t-7 26.5t-9 21.5t-8.5 16t-9.5 15t-8.5 12.5z" />
<glyph unicode="L" horiz-adv-x="964" d="M174 1315l14 35q64 26 142 26q64 0 116 -24q-20 -458 -20 -811q0 -315 6 -428h236q89 0 147.5 30.5t67.5 77.5h39q15 -18 15 -68q1 -17 -1 -39q-8 -82 -39 -114h-674q4 136 4 1090q0 30 -1.5 55.5t-3 43t-6 35t-7 26.5t-9 21.5t-8.5 16t-9.5 15t-8.5 12.5z" />
<glyph unicode="M" horiz-adv-x="1843" d="M199 1315l14 35q76 26 141 26q86 0 129 -30q36 -143 201.5 -554.5t249.5 -590.5q419 1072 420 1075q5 12 12.5 21.5t15 17t21 13.5t23 10.5t28 8.5t30 6t34 4.5t34 3.5t38 3.5t38.5 3.5q-3 -48 -3.5 -83t-0.5 -103t-2 -150q-2 -94 -2 -203q0 -297 14 -708q4 -76 15 -121 h-226l2 123q2 55 2 152q-1 47 -1 107q-2 176 -2 224.5t-3.5 191t-3.5 158.5q0 19 -2 66t-2 57l-43 -133l-350 -815l-55 -174l-86 18q-46 8 -80.5 39.5t-48 59t-21.5 57.5l-338 830q-16 43 -35 118q4 -58 4 -135q-13 -811 -14 -838q0 -73 8 -106h-149l4 33q17 308 30 679 t15 525q-36 65 -55 78z" />
<glyph unicode="N" horiz-adv-x="1548" d="M182 1315l15 35q59 23 97 23q14 0 25 -3q35 -42 66 -78t82.5 -94.5t228.5 -261t430 -494.5q19 -21 38 -53.5t28 -54.5l10 -23q-14 86 -14 129q4 10 4 654q0 159 -53 221l14 35q34 24 102 24q65 0 93 -22q-25 -567 -25 -961q0 -231 10 -391h-112l-779 891q-70 90 -84 127 q7 -40 7 -90t-2.5 -151t-2.5 -152q0 -456 21 -625h-148v33q3 399 3 731v330q0 84 -11 131.5t-43 89.5z" />
<glyph unicode="O" horiz-adv-x="1392" d="M100 651q0 -129 29.5 -240.5t80 -190.5t117.5 -135.5t141.5 -84t152.5 -27.5q149 0 273.5 56t209 153.5t132 230t50.5 285.5q0 161 -43 291t-118 212.5t-173 126.5t-211 44q-137 0 -255.5 -53.5t-203.5 -147.5t-133.5 -228.5t-48.5 -291.5zM322 717q0 144 45 265t125 192 t178 71q104 0 194.5 -82.5t144.5 -225t54 -308.5q0 -145 -44.5 -267t-124 -194t-175.5 -72q-108 0 -200.5 89t-144.5 231.5t-52 300.5z" />
<glyph unicode="P" d="M172 1313l14 35l369 12h23q66 0 126 -11t121 -40.5t105 -75t72 -120.5t28 -171q0 -123 -66.5 -222t-178.5 -153.5t-246 -54.5q-53 0 -109 12q9 -442 19 -524h-224v33q-1 63 1 243q1 108 1 183v86q0 57 1 145t1 144t-0.5 128.5t-4 120.5t-9.5 96.5t-17 81.5t-26 52z M430 633q39 -19 129 -19q122 0 205.5 78t83.5 205q0 93 -28.5 164t-74 110t-96.5 57q-46 17 -92 17h-10l-111 -4q-6 -74 -6 -547v-61z" />
<glyph unicode="Q" horiz-adv-x="1398" d="M100 651q0 -129 29.5 -240.5t80 -190.5t117.5 -135.5t141.5 -84t152.5 -27.5q3 0 9 1t9 1q21 -164 135 -263t258 -99q98 0 157 31.5t111 103.5q-16 -4 -38 -4q-106 0 -201.5 24.5t-176.5 81.5t-116 140q234 49 373 243t145 465q0 161 -43 291t-118 212.5t-173 126.5 t-211 44q-137 0 -255.5 -53.5t-203.5 -147.5t-133.5 -228.5t-48.5 -291.5zM322 717q0 144 45 265t125 192t178 71q104 0 194.5 -82.5t144.5 -225t54 -308.5q0 -145 -44.5 -267t-124 -194t-175.5 -72q-108 0 -200.5 89t-144.5 231.5t-52 300.5z" />
<glyph unicode="R" horiz-adv-x="1218" d="M172 1313l14 35q377 10 392 10q66 0 126 -11t121 -40t105 -74t72 -120t28 -171q0 -134 -77 -238.5t-205 -152.5q26 -13 235.5 -272t235.5 -279h-277q-12 24 -28 51t-38.5 58t-41 56.5t-48.5 62t-48.5 58.5t-53.5 62t-49 56.5t-51 57.5t-45 50q-53 0 -109 12 q9 -442 19 -524h-224v33q-1 63 1 243q1 108 1 183v86q0 57 1 145t1 144t-0.5 128.5t-4 120.5t-9.5 96.5t-17 81.5t-26 52zM430 633q39 -19 129 -19q122 0 205.5 78t83.5 205q0 94 -28.5 165.5t-74.5 110t-96 56.5q-45 16 -92 16h-10l-111 -4q-6 -74 -6 -547v-61z" />
<glyph unicode="S" horiz-adv-x="983" d="M113 180q0 32 22 68q12 -45 110.5 -88t194.5 -43q49 0 91.5 9t81 29.5t61 58.5t22.5 91q0 55 -32 105t-82.5 90t-112 79.5t-123.5 83.5t-112.5 92.5t-82.5 114.5t-32 142q0 68 24.5 132.5t70.5 117t120 84.5t164 32q77 0 147.5 -18t101 -33.5t72.5 -40.5q8 -28 9 -68v-7 q0 -37 -10 -79q-10 -46 -34 -69l-39 8q-17 51 -50.5 91t-73 62t-77 33t-69.5 11q-77 0 -138 -45.5t-61 -128.5q0 -54 34 -102.5t88 -87.5t119.5 -79t131.5 -85t120 -96.5t88 -123t34 -155.5q0 -164 -124 -278t-318 -114q-133 0 -234.5 63.5t-101.5 143.5z" />
<glyph unicode="T" horiz-adv-x="1107" d="M22 1178q4 -40 13 -52h39q6 47 66 78t149 31h157q9 -55 9 -156q2 -258 2 -519.5t-2 -526.5v-33h223q-12 75 -12 90q-2 80 -2 224t1 297t2 290.5t2 234t1 99.5h157q89 0 149 -31t66 -78h39q9 12 13 52q1 13 2 27q0 31 -7 68q-10 54 -40 87l-283 -12h-416l-282 12 q-30 -33 -40 -87q-7 -38 -8 -69q1 -14 2 -26z" />
<glyph unicode="U" horiz-adv-x="1445" d="M168 1315l14 35q64 26 142 26q64 0 116 -24q-10 -254 -10 -897q0 -86 21.5 -151t53.5 -101t76.5 -58.5t82 -29t79.5 -6.5q150 0 251.5 79.5t109.5 194.5q8 67 8 711q0 159 -53 221l14 35q34 24 103 24q64 0 92 -22q-21 -476 -21 -908q0 -205 -139.5 -339t-382.5 -134 q-112 0 -195.5 21t-152 71t-105.5 141.5t-41 223.5q-10 390 -10 662q0 30 -1.5 55.5t-3 43t-6 35t-7 26.5t-9 21.5t-8.5 16t-9.5 15t-8.5 12.5z" />
<glyph unicode="V" horiz-adv-x="1280" d="M31 1313q5 -2 13 -9t23 -28t31.5 -52t38.5 -85t43 -121l318 -887q8 -30 21.5 -58t47.5 -58.5t80 -39.5l86 -18l55 174l398 944q25 58 48 137.5t26 135.5q-41 28 -107 28q-68 0 -125 -26l-14 -35q43 -46 43 -115q0 -58 -31 -135l-278 -713q-12 -30 -23.5 -68t-16.5 -60 l-6 -23q-68 153 -214 570t-179 568q-37 37 -123 37q-79 0 -141 -28z" />
<glyph unicode="W" horiz-adv-x="1900" d="M31 1313q5 -2 13 -9t23 -28t31.5 -52t38.5 -85t43 -121l287 -887q8 -30 21.5 -58t47.5 -58.5t80 -39.5l86 -18l56 174l209 561l182 -561q8 -30 21.5 -58t47.5 -58.5t80 -39.5l86 -18l56 174l360 944q23 57 46 137t28 136q-45 20 -119 20q-72 0 -113 -20l-14 -35 q43 -46 43 -115q0 -56 -31 -133l-241 -713q-12 -30 -22.5 -68t-15.5 -60l-5 -23q-61 136 -191.5 553.5t-167.5 584.5q-37 37 -125 37q-83 0 -145 -28l-14 -35q5 -2 13 -9t23 -28t31.5 -52t38.5 -85t43 -121l39 -121l-184 -545q-12 -30 -23 -68t-16 -60l-4 -23 q-61 136 -191.5 553.5t-167.5 584.5q-37 37 -125 37q-83 0 -145 -28z" />
<glyph unicode="X" horiz-adv-x="1079" d="M33 0l71 100l355 559l-195 361q-15 28 -35.5 66.5t-29.5 55.5t-23.5 43t-21 36t-17 26t-17 22.5t-16.5 16t-19.5 15t-21.5 12.5l15 35q61 28 141 28q86 0 123 -37q10 -21 29.5 -65t30.5 -67.5t37 -75t66 -124t99 -178.5q20 41 43 78l107 174q1 2 8 13t9 14.5t8.5 14.5 t9 16.5t8 16t8 17.5t6.5 17t5.5 17.5t3 16.5t1.5 17q0 47 -22 72l14 35q48 28 115 28q71 0 116 -28q-18 -103 -137 -281l-239 -354l325 -592q17 -31 41.5 -61.5t39.5 -45.5l16 -14h-273l-289 537q-39 -72 -59 -103l-209 -323q-14 -25 -25 -53t-15 -43l-5 -15h-182z" />
<glyph unicode="Y" horiz-adv-x="1064" d="M10 1313l15 35q61 28 143 28q87 0 121 -37q46 -114 144.5 -304t152.5 -277q12 37 35 76l170 301q28 49 28 94q0 44 -26 84l14 35q61 28 115 28q50 0 108 -28q0 -35 -40 -128t-79 -153l-252 -405q0 -36 -1 -142t-1 -168q0 -239 17 -352h-223v33q0 84 1 200.5t1 149.5 q0 198 -2 233q-15 15 -43 64l-197 344q-27 47 -58 105t-43 79.5t-30 48t-33 37t-37 19.5z" />
<glyph unicode="Z" horiz-adv-x="1159" d="M31 41q41 45 53 63l680 1057l61 70h-194h-269q-89 0 -149 -31t-65 -78h-39q-9 12 -13 54q-1 13 -2 28q0 32 7 71q10 56 40 89l283 -12h678l6 -43q-39 -46 -51 -66l-672 -1044l-57 -66h235h281q89 0 149 31t66 78h39q9 -12 13 -54q1 -13 2 -27q1 -33 -7 -72 q-10 -56 -41 -89h-283h-745z" />
<glyph unicode="[" horiz-adv-x="507" d="M57 -141v1624h338v-99h-166v-1427h166v-98h-338z" />
<glyph unicode="\" horiz-adv-x="729" d="M10 1337q0 -24 9 -56.5t22.5 -69t15.5 -42.5q472 -1437 527 -1669h161q-246 727 -398 1242t-152 599q-9 14 -55.5 32t-86.5 18q-43 0 -43 -54z" />
<glyph unicode="]" horiz-adv-x="509" d="M115 -43v-98h338v1624h-338v-99h166v-1427h-166z" />
<glyph unicode="^" horiz-adv-x="1277" d="M145 655q103 180 211.5 379t165.5 308l58 108h114q405 -746 434 -795h-143q-98 180 -185 337.5t-125 224.5l-38 67q-127 -233 -348 -629h-144z" />
<glyph unicode="_" horiz-adv-x="921" d="M0 -154h983l-61 -122h-922v122z" />
<glyph unicode="`" horiz-adv-x="692" d="M127 1483l80 -140q108 -186 276 -186q16 0 34.5 7t30 15t11.5 11q-52 16 -91 52.5t-61 76.5t-42.5 77.5t-48.5 62t-66 24.5h-123z" />
<glyph unicode="a" horiz-adv-x="1019" d="M76 238q0 143 119.5 225t293.5 83q65 0 154 -22q4 82 4 123q0 68 -7 116t-26.5 92t-59 66.5t-99.5 22.5q-69 0 -113.5 -43.5t-44.5 -101.5q0 -3 1 -10.5t1 -10.5q-29 -20 -70 -20q-40 0 -69 25t-29 67q0 59 50 103t123 64.5t155 20.5q370 0 370 -293q0 -10 -1 -46.5 t-2 -125t-1 -225.5q0 -59 8 -122t21 -91q37 -74 141 -74v-36q-30 -19 -88.5 -35.5t-101.5 -16.5q-39 0 -69 18t-45.5 43.5t-25.5 56t-13 50.5t-3 33q-28 -89 -116.5 -145t-176.5 -56q-70 0 -125 22.5t-88 61t-50 84.5t-17 97zM260 272q0 -60 41 -105.5t119 -45.5 q72 0 136.5 31.5t80.5 66.5l6 256q-14 0 -42 -1.5t-92.5 -13t-115.5 -30.5t-92 -60.5t-41 -97.5z" />
<glyph unicode="b" d="M98 1458v37q8 6 22.5 14.5t58 22.5t87.5 14q75 0 103 -44q26 -41 26 -129v-13q-1 -44 -6.5 -147.5t-7.5 -190.5q-2 -63 -12 -102q131 118 284 118q75 0 142 -29.5t121.5 -88t87 -157t32.5 -224.5q0 -84 -19 -165t-59 -153.5t-96.5 -127.5t-136.5 -87.5t-174 -32.5 q-115 0 -209.5 37t-122.5 99q-10 23 -15.5 50.5t-7.5 72.5q-1 34 -1 65q1 11 1 21q0 40 1.5 121.5t1.5 148.5l-4 686q0 84 -26 131t-71 53zM379 848q0 -371 8 -543q6 -128 44 -178.5t142 -50.5q55 0 99.5 20.5t73.5 56t49.5 78t31 93t15 93.5t4.5 87q0 185 -84 292t-217 107 q-92 0 -166 -51v-4z" />
<glyph unicode="c" horiz-adv-x="966" d="M96 461q0 255 133 416t349 161q59 0 113.5 -10.5t101 -31.5t74.5 -57.5t28 -84.5q0 -37 -28 -64.5t-76 -27.5q-39 0 -68 29q-14 133 -186 133q-77 0 -137 -58t-90.5 -147.5t-30.5 -190.5q0 -104 32.5 -192t104.5 -147.5t172 -59.5q89 0 176.5 48.5t142.5 131.5 q8 -24 8 -49q0 -76 -59 -143.5t-151 -105.5t-189 -38q-84 0 -157.5 28.5t-133.5 85.5t-94.5 153.5t-34.5 220.5z" />
<glyph unicode="d" horiz-adv-x="1138" d="M96 461q0 84 19 166t59.5 156.5t97 131t137 90t173.5 33.5q87 0 180 -28l-2 264q0 84 -25.5 131t-70.5 53v37q8 6 22 14.5t57.5 22.5t87.5 14q75 0 102.5 -43.5t27.5 -142.5q0 -46 -8.5 -204.5t-8.5 -307.5q0 -373 10 -588q3 -62 16 -103t37 -61t49.5 -27t63.5 -8v-36 q-3 -2 -19.5 -9t-23.5 -10t-23 -9.5t-27 -9.5t-27 -7t-31 -5.5t-31 -1.5q-53 0 -99 32.5t-57 109.5q-152 -142 -303 -142q-75 0 -141.5 28t-122 84t-87.5 153t-32 223zM287 496q0 -184 83 -285.5t218 -101.5q87 0 174 65v31q0 25 1 190t1 193v309q-100 29 -205 29 q-65 0 -115.5 -30t-79.5 -75t-47 -106t-24 -113t-6 -106z" />
<glyph unicode="e" horiz-adv-x="1007" d="M96 461q0 164 52.5 295t151 206.5t226.5 75.5q73 0 132 -18.5t96.5 -46t65.5 -68t42.5 -77t22.5 -80t10 -70.5t2 -55v-48q-41 -24 -119 -24l-493 6q2 -31 2 -82q0 -162 83.5 -254t217.5 -92q89 0 176.5 48.5t142.5 131.5q8 -24 8 -49q0 -76 -59 -143.5t-151 -105.5 t-189 -38q-67 0 -127 17.5t-113 55.5t-92 94t-62.5 138.5t-25.5 182.5zM279 639l438 8q0 69 -22 130t-73.5 104t-123.5 43q-49 0 -85.5 -21t-61.5 -63t-40.5 -87.5t-31.5 -113.5z" />
<glyph unicode="f" horiz-adv-x="671" d="M92 942q5 -1 13.5 -4t31.5 -22t43 -48q27 -39 27 -309q0 -77 -2 -204.5t-4 -225t-2 -100.5v-29h209q-33 149 -33 754v133q7 0 65.5 -1t73.5 -1q156 0 156 108l-4 39q-11 -24 -72 -24h-225q4 8 4 47v20l-4 142v17q0 185 145 185q40 0 67 -24.5t33 -59.5q23 -10 54 -10 q39 1 64.5 27.5t25.5 62.5q0 64 -61.5 97.5t-139.5 33.5q-43 0 -84.5 -11.5t-85.5 -41.5t-79 -76t-61.5 -121t-35.5 -170q-5 -61 -36.5 -89.5t-72.5 -32.5z" />
<glyph unicode="g" horiz-adv-x="1073" d="M82 -287q0 39 28.5 75t82.5 36q51 0 83 -49q-10 -33 -10 -58q0 -73 72.5 -110t179.5 -37q122 0 212.5 58t90.5 147q0 50 -37 77.5t-95.5 36t-129.5 11t-142.5 9.5t-130 24.5t-95.5 62.5t-37 117q0 116 143 182q-76 47 -124 131t-48 203q0 178 119.5 293.5t308.5 115.5 q52 0 110 -15t85 -42l36 27h183q27 0 45 6t22 12l4 6q13 -33 13 -55q0 -48 -38 -71t-95 -23q-34 0 -62 11t-31 11l-8 -2q47 -36 75 -104.5t28 -141.5q0 -102 -34 -183t-92 -130.5t-130 -75.5t-152 -26q-92 0 -174 30q-47 -35 -47 -92q0 -14 6 -35q9 -32 53 -47.5t106.5 -19 t135.5 -5.5t144.5 -12.5t130 -33.5t94.5 -75t36 -130q0 -79 -42.5 -145t-113 -107.5t-156.5 -64.5t-177 -23q-112 0 -207.5 26t-157 79.5t-61.5 125.5zM319 684q0 -161 59 -261.5t165 -100.5q88 0 137 73.5t49 202.5q0 157 -64 255.5t-171 98.5q-54 0 -91.5 -28t-54 -73.5 t-23 -85t-6.5 -81.5z" />
<glyph unicode="h" horiz-adv-x="1196" d="M104 1458v37q8 6 22.5 14.5t58 22.5t87.5 14q67 0 96 -37q30 -37 30 -111v-9q0 -71 -7 -175q-11 -157 -11 -329q0 -40 1 -80q26 43 59 80.5t80 73.5t110.5 57.5t135.5 21.5q104 0 173.5 -73t72.5 -170v-24q0 -46 -2 -170q-1 -67 0 -134q0 -107 2 -215q4 -175 20 -252 h-201q-5 34 -5 68q0 15 1 30l4 492v16q0 142 -34 204q-36 66 -131 67q-166 0 -285 -134q4 -413 16 -657q3 -56 11 -86h-203v31q1 185 1 385q0 400 -5 858q0 84 -26 131t-71 53z" />
<glyph unicode="i" horiz-adv-x="573" d="M111 946v37q82 51 182 51q67 0 87 -44q16 -36 16 -96q0 -15 -1 -32q-12 -244 -12 -708q0 -96 12 -154h-202v8l16 690v24q0 52 -7 94q-9 50 -24 73.5t-30 37.5t-26 17zM172 1313q0 43 32.5 74.5t78.5 31.5q43 0 75.5 -31.5t32.5 -74.5t-33 -77t-75 -34q-45 0 -78 34 t-33 77z" />
<glyph unicode="j" horiz-adv-x="565" d="M-23 -453q42 -57 103 -57q43 0 96.5 39t101 101.5t79.5 153t32 181.5v737q4 122 4 158q0 94 -24 134t-95 40q-44 0 -86 -13t-62 -25l-20 -13v-37q46 -6 73.5 -53t27.5 -131q0 -9 0.5 -177t1 -358.5t0.5 -255.5q0 -93 -30 -190t-85 -165t-117 -69zM172 1313 q0 43 32.5 74.5t78.5 31.5q43 0 75.5 -31.5t32.5 -74.5t-33 -77t-75 -34q-45 0 -78 34t-33 77z" />
<glyph unicode="k" horiz-adv-x="1101" d="M109 1458v37q8 6 22 14.5t57.5 22.5t87.5 14q70 0 100 -38t30 -119q0 -38 -9.5 -335t-9.5 -495l322 266q58 47 61 86q0 19 -25 35v37q22 15 77 33t102 18q88 0 88 -53q0 -15 -7 -30.5t-21.5 -32t-29 -30.5t-38.5 -32.5t-40 -30t-44 -31t-41 -28.5l-236 -166 q26 -41 104 -145q16 -22 47 -65t48.5 -67t47.5 -62t51.5 -61t52.5 -51t58 -45t60.5 -30.5t67.5 -18.5v-35q-23 -19 -75.5 -33t-90.5 -14q-55 0 -93 9t-73.5 36.5t-65.5 64.5t-76 105q-32 48 -68.5 104.5t-59.5 92t-45 68.5t-36 50.5t-22 20.5q0 -396 23 -524h-205v31 q0 67 1 225.5t1 235.5l-2 782q0 84 -25.5 131t-70.5 53z" />
<glyph unicode="l" horiz-adv-x="573" d="M109 1458v37q8 6 22 14.5t57.5 22.5t87.5 14q67 0 96.5 -37t31.5 -111v-34q0 -64 -5 -150q-12 -240 -12 -563q1 -13 1 -27q0 -340 9 -538q1 -17 13 -86h-205v31q2 226 2 536.5t-1 508.5l-1 198q0 84 -25.5 131t-70.5 53z" />
<glyph unicode="m" horiz-adv-x="1822" d="M102 946v37q82 51 183 51q35 0 58 -13.5t33 -37t14 -55.5q2 -15 1 -30q0 -18 -2 -36q-4 -18 -10 -57q25 42 60 80t83 74t113 57.5t137 21.5q95 0 162.5 -62.5t81.5 -152.5q26 40 59 74.5t79.5 68t108 53t130.5 19.5q104 0 173 -72.5t72 -170.5v-24q0 -45 -2 -169 q-1 -62 0 -125q0 -112 2 -225q4 -175 21 -252h-201q-5 34 -5 68q0 15 1 30l4 492v16q0 142 -34 204q-36 66 -132 67q-162 0 -274 -117l-2 -70q-1 -71 -1 -110t-1 -120v-61v-77q2 -56 4.5 -123t7.5 -117t12 -82h-200q-5 34 -5 68q0 15 1 30l4 492v16q0 142 -34 204 q-36 66 -132 67q-170 0 -289 -140q0 -366 4 -583q0 -76 16 -154h-204v8l8 690v12q1 60 -9 106q-10 50 -26 73.5t-32 37.5t-27 17z" />
<glyph unicode="n" horiz-adv-x="1202" d="M102 983q82 51 183 51q35 0 58 -13.5t33 -37t14 -55.5q2 -15 1 -30q0 -18 -2 -36l-10 -57q25 42 60 80t83 74t113 57.5t137 21.5q104 0 173.5 -73t72.5 -170v-24q0 -46 -2 -170q-1 -67 0 -134q0 -107 2 -215q4 -175 20 -252h-200q-5 34 -5 68q0 15 1 30l4 492v16 q0 142 -34 204q-36 66 -132 67q-170 0 -289 -140q0 -366 4 -583q0 -76 16 -154h-204v8l8 690v12q0 60 -9 106q-10 50 -25.5 73.5t-31 37.5t-26.5 17l-11 2z" />
<glyph unicode="o" d="M96 487q0 -16 1.5 -39.5t10.5 -76t25 -101t49 -105t77 -97t115 -68t158 -27.5q109 0 204 45t160 120.5t102.5 176.5t37.5 211q0 126 -35.5 226t-96.5 161t-138 93t-164 32q-219 0 -362.5 -156.5t-143.5 -394.5zM297 573q0 61 13.5 122t40 116t72.5 89t105 34 q127 0 216.5 -135.5t89.5 -337.5q0 -170 -71.5 -278.5t-174.5 -108.5q-125 0 -208 144t-83 355z" />
<glyph unicode="p" horiz-adv-x="1155" d="M109 946v37q8 6 22 14.5t57.5 22.5t87.5 14q71 0 94 -29t23 -94q140 123 283 123q75 0 141.5 -29t121.5 -86.5t87.5 -155.5t32.5 -224q0 -106 -31.5 -205.5t-90 -180.5t-153.5 -130.5t-211 -49.5q-84 0 -184 29q5 -368 8 -416q2 -34 11 -78h-203q0 31 1 232.5t1 224.5 l-2 797q0 84 -25.5 131t-70.5 53zM389 115h2q89 -29 205 -29q66 0 116 29t79 72t47 102t24 110.5t6 104.5q0 185 -83.5 290t-217.5 105q-99 0 -161 -45v-6q0 -46 -8.5 -260t-8.5 -363v-110z" />
<glyph unicode="q" horiz-adv-x="1128" d="M96 461q0 84 19 166t59.5 156.5t97 131t137 90t173.5 33.5q53 0 200.5 -16.5t192.5 -17.5q-15 -566 -15 -951q0 -299 9 -489q0 -24 4 -56h-197q0 25 1 225t1 228v150q-144 -138 -299 -138q-75 0 -141.5 28t-122 84t-87.5 153t-32 223zM287 496q0 -184 83 -285.5 t218 -101.5q110 0 190 65l-4 588q0 77 -12 135q-89 29 -203 29q-65 0 -115.5 -30t-79.5 -75t-47 -106t-24 -113t-6 -106z" />
<glyph unicode="r" horiz-adv-x="829" d="M106 946v37q82 51 183 51q57 0 77.5 -29.5t20.5 -86.5q0 -26 -6 -56l-10 -90q5 11 17.5 33.5t43 65.5t65.5 78t86.5 62t104.5 27q67 0 104 -35t37 -88q0 -41 -27.5 -72.5t-76.5 -31.5q-25 0 -39 4q-28 70 -94 70q-46 0 -83.5 -34t-60 -84.5t-38 -114t-21.5 -118 t-6 -100.5q0 -362 20 -434h-204q0 41 4 288t4 410q0 68 -9.5 117.5t-22 73.5t-29 38t-25 16.5t-15.5 2.5z" />
<glyph unicode="s" horiz-adv-x="851" d="M92 737q0 124 98.5 212.5t243.5 88.5q74 0 133.5 -12.5t86.5 -25t61 -33.5q8 -25 9 -63v-7q0 -35 -9 -73q-10 -42 -33 -64l-37 8q-21 65 -62.5 105.5t-81 53.5t-83.5 13q-79 0 -125.5 -37.5t-46.5 -91.5q0 -39 23 -71.5t60 -55.5t84.5 -47t97.5 -44.5t97.5 -50.5 t84.5 -63t60 -83.5t23 -110.5q0 -137 -101.5 -224.5t-264.5 -87.5q-119 0 -215.5 63t-96.5 148q0 34 21 72q12 -58 108 -111t185 -53q52 0 94 13t72 47t30 86q0 36 -28.5 67t-74 56t-100.5 50t-110 55.5t-100.5 66.5t-74 88.5t-28.5 115.5z" />
<glyph unicode="t" horiz-adv-x="772" d="M92 946l10 62q7 0 14.5 1t30 10t44 24.5t51.5 51t57 83.5h100l-24 -170h250q27 0 45 6t22 12l4 6q4 -16 4 -39q0 -52 -45.5 -81t-111.5 -29q-18 0 -67.5 2t-69.5 2q-23 0 -29 -2l-2 -520q0 -56 5 -92t21 -69t49.5 -49t86.5 -16q60 0 121 20t69 38q12 -18 12 -43 q0 -65 -81 -123t-189 -58q-85 0 -140 21.5t-84 67.5t-39.5 102t-10.5 141q0 55 6 202t6 212q0 128 -21 158q-10 13 -20.5 24.5t-19 18.5t-17.5 12t-15.5 7.5t-12 4t-7.5 2.5h-2z" />
<glyph unicode="u" horiz-adv-x="1204" d="M90 948v35q30 20 79 35.5t91 15.5q37 0 61 -9.5t37 -29.5t18.5 -49.5t5.5 -69.5q0 -13 1 -27q0 -29 -1 -62q0 -11 -0.5 -17.5t-0.5 -17v-19.5l-2 -319v-17q-1 -141 31 -199q34 -62 129 -63q167 0 282 135q6 252 6 410q0 67 -8.5 124.5t-17.5 78.5q-25 57 -76 69v35 q84 47 158 47q86 0 107.5 -37t21.5 -172v-516q0 -37 3.5 -68.5t8 -55t13.5 -42t16 -30.5t20.5 -21.5t21 -14.5t22.5 -8.5t21.5 -4t22 -2t19.5 -1.5v-36q-20 -13 -78 -32.5t-105 -19.5q-160 0 -168 230q-26 -42 -60.5 -79.5t-83 -73t-113 -56.5t-136.5 -21 q-104 0 -172.5 73.5t-70.5 170.5q0 89 4 277q1 57 1 104q0 78 -3 128q-5 80 -29 148q-10 29 -29 47.5t-33 22.5z" />
<glyph unicode="v" horiz-adv-x="1028" d="M20 983q25 19 77.5 35t92.5 16q68 0 97 -30t49 -105q15 -85 194 -590q20 -59 56 -133q21 84 41 137l161 426q29 73 29 129q0 58 -35 78v37q21 20 64 35.5t84 15.5q69 0 69 -69q0 -47 -51 -174l-289 -680l-47 -166l-73 18q-62 11 -96.5 56.5t-45.5 91.5l-184 577 q-20 64 -46.5 113.5t-48.5 75t-45 42.5t-33 21.5t-17 5.5z" />
<glyph unicode="w" horiz-adv-x="1703" d="M20 983q25 19 77.5 35t92.5 16q68 0 97 -30t49 -105q15 -85 194 -590q20 -59 56 -133q29 84 47 137l155 426q31 90 33 101q-55 83 -123 106l-2 37q25 19 77.5 35t92.5 16q68 0 97 -30t49 -105q15 -85 194 -590q20 -59 56 -133q21 84 41 137l161 426q27 69 27 138 q0 51 -33 69v37q24 21 66.5 36t81.5 15q29 0 46 -12t20 -34q2 -15 2 -30v-14q-2 -22 -12.5 -54.5t-18 -52t-19.5 -46.5l-289 -680l-47 -166l-74 18q-62 11 -96 56t-45 92l-180 563l-234 -563l-47 -166l-73 18q-62 11 -96.5 56.5t-45.5 91.5l-184 577q-20 64 -46.5 113.5 t-48.5 75t-45 42.5t-33 21.5t-17 5.5z" />
<glyph unicode="x" horiz-adv-x="970" d="M20 0l390 481l-131 207q-32 47 -63 99t-43 72t-32 41.5t-41.5 29.5t-60.5 16l-2 37q67 51 141 51q42 0 70.5 -6.5t49.5 -26t32 -34.5t32.5 -54.5t36.5 -62.5l123 -197l19 -41q10 21 24 41l125 158q43 54 43 96q0 26 -18 41v35q58 51 141 51q32 0 51 -16.5t19 -42.5 q0 -60 -48 -125t-276 -322l268 -413l91 -115h-252l-39 76l-174 270l-23 41q-11 -20 -29 -43l-202 -262l-47 -82h-175z" />
<glyph unicode="y" horiz-adv-x="1019" d="M10 983q25 19 77.5 35t92.5 16q68 0 99 -32t47 -103q22 -106 194 -590q22 -66 55 -133q4 31 43 137l162 426q29 73 29 129q0 58 -35 78v37q21 20 64 35.5t84 15.5q69 0 69 -69q0 -47 -51 -174l-418 -1004q-62 -152 -92 -201q-66 -108 -170 -129q-29 -6 -63 -6 q-86 0 -129 49t-43 127q0 29 2 43q10 -25 54 -40t91 -15q163 0 211 115l94 225q5 13 12 24.5t11 16.5l4 6q-38 11 -72.5 42.5t-44.5 66.5l-184 577q-20 64 -46.5 113.5t-48.5 75t-45.5 42.5t-33.5 21.5t-17 5.5z" />
<glyph unicode="z" horiz-adv-x="954" d="M51 39q32 26 55 61l457 723q12 18 26.5 34.5t22.5 24.5l9 7h-287q-89 0 -149 -31t-67 -78h-38q-10 12 -14 54q-1 13 -1 26q-1 32 7 72q10 56 41 88l282 -12h475l7 -39q-36 -27 -56 -62l-456 -731q-10 -16 -22.5 -30.5t-20.5 -20.5l-7 -6h322q89 0 149 31t66 77h39 q9 -13 13 -51l2 -24q0 -30 -8 -66q-10 -52 -40 -86h-283h-518z" />
<glyph unicode="{" horiz-adv-x="681" d="M37 578v45q153 0 153 579q0 86 30.5 155t78 109.5t101.5 62t106 21.5q72 0 125 -47q-119 -2 -189.5 -85.5t-70.5 -233.5q0 -140 -18 -258t-45.5 -188.5t-57 -110.5t-55.5 -43q4 -1 10 -4.5t24.5 -22t35 -46t37 -82.5t35 -125t24.5 -179.5t10 -241.5q0 -58 2.5 -94 t14 -81.5t33 -71.5t61.5 -44t98 -18q15 0 51 4q-68 -80 -174 -80q-105 0 -186 79t-81 212q0 232 -12.5 392t-35.5 241t-47.5 115t-57.5 41z" />
<glyph unicode="|" horiz-adv-x="163" d="M0 -520v2068h164v-2068h-164z" />
<glyph unicode="}" horiz-adv-x="681" d="M51 -422q68 -80 174 -80q105 0 186 79t81 212q0 232 12.5 392t35.5 241t47.5 115t57.5 41v45q-153 0 -153 579q0 86 -30.5 155t-78 109.5t-101.5 62t-106 21.5q-72 0 -125 -47q119 -2 189.5 -85.5t70.5 -233.5q0 -140 18 -258t45.5 -188.5t57 -110.5t55.5 -43 q-4 -1 -10 -4.5t-24.5 -22t-35 -46t-37 -82.5t-35 -125t-24.5 -179.5t-10 -241.5q0 -58 -2.5 -94t-14 -81.5t-33 -71.5t-61.5 -44t-98 -18q-15 0 -51 4z" />
<glyph unicode="~" horiz-adv-x="1079" d="M184 535q74 55 129 51q34 -2 125.5 -34t159.5 -36q99 -6 176 35.5t96 128.5q-83 -59 -151 -55q-36 4 -131 34t-146 33q-62 4 -114 -9.5t-92.5 -51t-51.5 -96.5z" />
<glyph horiz-adv-x="1024" />
<glyph unicode="&#xa1;" horiz-adv-x="540" d="M124.5 -65.5q0.5 30.5 6.5 75.5t14 86.5t16.5 100t12.5 108.5l57 723h60l74 -999q4 -49 16 -85t23 -48l10 -11v-47q-68 -45 -131 -45q-46 0 -77.5 10t-49 27t-25 45.5t-7 59zM154 1255q0 46 32 78.5t76 32.5q46 0 78.5 -32.5t32.5 -78.5q0 -44 -32.5 -76t-78.5 -32 q-44 0 -76 32t-32 76z" />
<glyph unicode="&#xa2;" horiz-adv-x="1003" d="M113 461q0 153 51.5 279.5t149 205.5t223.5 90q-1 36 -5.5 104t-5.5 83q45 10 58 10q14 0 24 -4t15.5 -13.5t8.5 -19.5t3.5 -26.5t0 -30t-1.5 -34.5t-1 -36v-33q135 -12 206.5 -74.5t53.5 -158.5q-33 39 -106.5 67t-155.5 31q-6 -480 -6 -637v-135q84 5 165.5 53 t133.5 127q8 -24 8 -49q0 -96 -89 -173t-216 -103l8 -207h-100q0 135 2 196h-5q-84 0 -157.5 28.5t-133 85.5t-94 153t-34.5 221zM295 528q0 -91 25.5 -171.5t81.5 -141.5t135 -80q6 610 4 762q-95 -13 -148 -72q-98 -109 -98 -297z" />
<glyph unicode="&#xa3;" horiz-adv-x="1124" d="M74 551l12 133q0 4 137 4q0 21 0.5 86t1 80.5t2 60.5t4.5 66t8 54t13 65q11 47 28.5 92t47 97.5t73 96t99.5 80t134 57.5t169 21q62 0 125 -20t110 -63.5t47 -100.5q0 -67 -37.5 -102t-82.5 -35q-47 0 -80 30q1 0 3 5.5t3.5 16t1.5 21.5q0 48 -51 89.5t-135 41.5 q-111 0 -192 -97t-93 -230q-5 -51 -8 -102.5t-4.5 -81.5t-3.5 -109t-3 -123q132 -4 154 -4q219 0 259 7q19 4 26 9q-6 -34 -19.5 -59t-37.5 -39.5t-44.5 -23.5t-58.5 -12.5t-59 -4t-64 -0.5h-20h-142q-5 -163 -46.5 -381t-84.5 -280q238 -46 404 -46q174 0 314 31.5 t196 91.5q6 -27 6 -53q0 -219 -410 -219q-48 0 -103.5 4t-131.5 14.5t-130.5 19t-164 26t-168.5 26.5q59 129 96 343.5t47 424.5h-90q-25 0 -57 -8z" />
<glyph unicode="&#xa4;" horiz-adv-x="1183" d="M25 731l24 131q0 -6 127 -6q56 236 227.5 376t413.5 140q123 0 205 -31t102.5 -84.5t-26.5 -126.5q-3 39 -90.5 79t-214.5 40q-174 0 -297 -112.5t-160 -282.5h385q219 0 259 7q19 4 26 9q-5 -29 -17.5 -51.5t-26 -37t-39 -25t-43 -15.5t-52 -7.5t-51.5 -2.5h-55h-20 h-378q0 -72 10 -164h264h1h1h1h1h1h1h1h1h1h1h1h1h1h1h1h1h1h1h1h1h2q216 0 252 12q7 2 11 5q-6 -34 -19.5 -59t-38 -40t-45 -24t-58.5 -12.5t-59.5 -4t-65.5 -0.5h-9h-8h-222q102 -354 461 -354q30 0 74.5 8.5t108.5 37.5t106 73q3 -118 -92.5 -178t-259.5 -60 q-236 0 -386.5 127t-197.5 348h-106q-29 0 -37 -2l20 131q28 -4 105 -4q-2 25 -2 74q0 59 4 88h-95q-28 0 -36 -2z" />
<glyph unicode="&#xa5;" horiz-adv-x="1064" d="M10 1313l15 35q61 28 143 28q87 0 121 -37q46 -114 144.5 -304t152.5 -277q12 37 35 76l170 301q26 45 26 94q0 43 -24 84l14 35q61 28 115 28q50 0 108 -28q1 -34 -38.5 -124t-80.5 -157l-225 -360q207 0 246 8q17 3 24 8q-5 -29 -18 -51.5t-28 -37t-42 -24.5t-46 -15 t-54 -7.5t-53.5 -3t-56.5 -0.5h-15q-12 -165 -12 -185h24q74 0 110 0.5t84.5 1.5t73 5t33.5 10q-5 -29 -19 -52t-29.5 -37.5t-43.5 -24.5t-48 -15t-56 -8t-55 -3h-57h-17q0 -170 16 -276h-198v33q0 54 1 133t1 110q-147 3 -209 3q-25 0 -37 -3v132q0 -9 246 -9v185 q-98 2 -209 2q-29 0 -37 -2v131q0 -4 186 -8l-180 317q-27 48 -57.5 105t-43 79.5t-30 48t-32.5 36.5t-38 20z" />
<glyph unicode="&#xa7;" horiz-adv-x="860" d="M102 -311l4 37q58 -52 135.5 -83t145.5 -30h19q16 160 -11 359t-131 571q-102 364 -102 571q0 175 99.5 294.5t250.5 119.5q79 0 143 -20t100 -49.5t54.5 -60t17.5 -55.5l-4 -36q-57 51 -134.5 82t-145.5 30h-21q-15 -162 13 -361.5t131 -568.5q102 -364 102 -571 q0 -175 -99.5 -294.5t-250.5 -119.5q-79 0 -143 19.5t-99.5 49.5t-54.5 60t-19 56zM281 1081q0 -77 23 -184t95 -387q28 -113 42 -171t34.5 -154t27 -157t11 -137t-4 -139t-26.5 -121q79 29 123 108.5t43 211.5q0 54 -15 136t-33 154.5t-71 280.5q-28 110 -42 170 t-34.5 154.5t-27.5 156.5t-11.5 137.5t3.5 139t26 121.5q-166 -63 -163 -320z" />
<glyph unicode="&#xa8;" horiz-adv-x="786" d="M106 1313q0 46 31 79t72 33t71.5 -33t30.5 -79q0 -47 -30 -80t-72 -33t-72.5 33t-30.5 80zM483 1313q0 46 31 79t72 33t71.5 -33t30.5 -79q0 -47 -30 -80t-72 -33t-72.5 33t-30.5 80z" />
<glyph unicode="&#xa9;" horiz-adv-x="1617" d="M113 618q0 158 54 295t150.5 235.5t237 155t305.5 56.5q186 0 333.5 -81.5t229.5 -228t82 -331.5q0 -159 -52.5 -297t-146.5 -237t-231 -155.5t-299 -56.5q-291 0 -477 181t-186 464zM244 664q0 -249 165 -415.5t412 -166.5q112 0 214 44.5t177.5 121.5t120.5 188t45 236 q0 255 -157.5 419t-403.5 164q-116 0 -221.5 -44.5t-183 -121.5t-123 -188t-45.5 -237zM473 643q0 173 100 295.5t258 122.5q122 0 193.5 -56t54.5 -135q-3 3 -8.5 8t-25.5 18t-44 22.5t-64 17.5t-85 8q-41 0 -82 -18t-68 -45q-71 -71 -71 -197q0 -104 57.5 -179t163.5 -75 q66 0 132.5 35t111.5 98q12 -37 12 -57q0 -82 -96.5 -142.5t-210.5 -60.5q-139 0 -233.5 85.5t-94.5 254.5z" />
<glyph unicode="&#xaa;" horiz-adv-x="858" />
<glyph unicode="&#xab;" horiz-adv-x="1302" d="M127 506q23 21 41 41l268 319q46 56 90 86t78.5 32.5t58.5 -5t44 -23.5q-18 -6 -42.5 -27t-39.5 -39l-15 -18l-227 -303q-11 -16 -28 -31.5t-29 -23.5l-11 -8q43 -29 68 -64l227 -303q56 -70 97 -84q-20 -16 -44 -23.5t-58.5 -5t-78.5 32.5t-90 86l-268 320zM582 506 q23 21 41 41l268 319q46 56 90 86t78 32.5t58 -5t44 -23.5q-18 -6 -42 -27t-39 -39l-15 -18l-227 -303q-11 -16 -28 -31.5t-28 -23.5l-12 -8q43 -29 68 -64l227 -303q55 -70 96 -84q-20 -16 -44 -23.5t-58 -5t-78 32.5t-90 86l-268 320z" />
<glyph unicode="&#xac;" horiz-adv-x="1095" />
<glyph unicode="&#xad;" horiz-adv-x="618" d="M59 436v131q0 -8 222 -8q218 0 258 7q18 4 26 9q-6 -34 -19.5 -59t-37.5 -39.5t-44.5 -23.5t-58.5 -12.5t-59 -4t-64 -0.5h-20q-27 0 -90 1t-76 1q-29 0 -37 -2z" />
<glyph unicode="&#xae;" horiz-adv-x="1617" d="M113 627q0 158 54 295t150.5 235.5t236.5 154.5t306 56q186 0 333.5 -81.5t229.5 -228t82 -331.5q0 -213 -89.5 -382t-256.5 -266t-383 -97q-291 0 -477 181t-186 464zM244 672q0 -249 165 -415.5t412 -166.5q112 0 214 44.5t177.5 121.5t120.5 188t45 236 q0 255 -157.5 419.5t-403.5 164.5q-156 0 -286.5 -75.5t-208.5 -212t-78 -304.5zM565 965v43q79 41 142 41q77 0 77 -78q2 -12 -2 -53l-1 -10l-1 -9q35 60 89 109t120 49q56 0 82.5 -28t26.5 -64t-26.5 -62t-67.5 -37q-8 26 -27.5 40t-40.5 14q-62 0 -100.5 -51.5t-49 -129 t-6.5 -162.5t22 -157t40 -107h-219q14 152 14 486q1 46 -6 79.5t-16 49.5t-21 25t-18 10.5t-11 1.5z" />
<glyph unicode="&#xaf;" horiz-adv-x="686" d="M100 1225v131q0 -8 222 -8q218 0 258 7q19 4 26 9q-6 -34 -19.5 -59t-37.5 -39.5t-44.5 -23.5t-58.5 -12.5t-59 -4t-64 -0.5h-20q-27 0 -90 1t-76 1q-29 0 -37 -2z" />
<glyph unicode="&#xb0;" horiz-adv-x="817" d="M55 1176q0 141 100.5 240.5t243.5 99.5q141 0 240.5 -99.5t99.5 -240.5q0 -143 -99.5 -244t-240.5 -101q-142 0 -243 101t-101 244zM172 1176q0 -92 66.5 -159t158.5 -67q96 0 161 66.5t65 159.5q0 97 -64.5 161t-161.5 64q-93 0 -159 -64.5t-66 -160.5z" />
<glyph unicode="&#xb1;" horiz-adv-x="915" />
<glyph unicode="&#xb4;" horiz-adv-x="692" d="M139 1190q52 16 91 52.5t61.5 76.5t43 77.5t48.5 62t66 24.5h122l-79 -140q-108 -186 -277 -186q-16 0 -34.5 7t-30 15t-11.5 11z" />
<glyph unicode="&#xb5;" horiz-adv-x="1062" />
<glyph unicode="&#xb6;" horiz-adv-x="1273" d="M117 762q0 160 71.5 296t194 215t266.5 79h2h221q219 0 259 7q19 4 26 9q-18 -116 -147 -133q-2 -20 -2 -66q0 -7 -2 -126.5t-4 -308t-3 -349.5q-1 -105 2 -325t6 -388l3 -168h-101q5 616 6.5 856.5t0 487t-8.5 381.5h-90q-2 -18 -2 -60q0 -8 -1.5 -127t-3.5 -308 t-3 -349q-1 -105 1.5 -325t5.5 -388l3 -168h-100q4 450 4 594q0 59 4 86q-52 -19 -102 -22q-136 -10 -255 75.5t-186 227.5t-65 297z" />
<glyph unicode="&#xb7;" horiz-adv-x="528" d="M145 502q0 44 32.5 76t78.5 32q44 0 76.5 -32t32.5 -76q0 -46 -32.5 -78.5t-76.5 -32.5q-46 0 -78.5 32.5t-32.5 78.5z" />
<glyph unicode="&#xb8;" horiz-adv-x="823" d="M205 -377q0 24 8 45q43 -43 145 -43q48 0 81.5 21.5t33.5 56.5q0 26 -28.5 45t-62.5 29.5t-62.5 35t-28.5 60.5q0 30 19.5 60.5t58.5 52.5l43 2q-15 -31 -15 -60q0 -16 20.5 -26.5t50.5 -19t59.5 -21.5t50 -41.5t20.5 -71.5q0 -94 -68.5 -161.5t-164.5 -67.5 q-73 0 -116.5 27.5t-43.5 76.5z" />
<glyph unicode="&#xb9;" horiz-adv-x="522" />
<glyph unicode="&#xba;" horiz-adv-x="843" />
<glyph unicode="&#xbb;" horiz-adv-x="1316" d="M129 55q20 -16 44 -23.5t58 -5t78 32.5t90 86l269 320l41 41q-23 21 -41 41l-269 319q-46 56 -90 86t-78 32.5t-58 -5t-44 -23.5q18 -6 42 -27t39 -39l15 -18l228 -303q11 -16 28 -31.5t28 -23.5l11 -8q-42 -29 -67 -64l-228 -303q-55 -70 -96 -84zM584 55 q20 -16 44 -23.5t58 -5t78 32.5t90 86l268 320l41 41q-23 21 -41 41l-268 319q-46 56 -90 86t-78 32.5t-58 -5t-44 -23.5q18 -6 42 -27t39 -39l15 -18l227 -303q11 -16 28 -31.5t29 -23.5l11 -8q-43 -29 -68 -64l-227 -303q-55 -70 -96 -84z" />
<glyph unicode="&#xbc;" horiz-adv-x="1267" />
<glyph unicode="&#xbd;" horiz-adv-x="1439" />
<glyph unicode="&#xbf;" horiz-adv-x="849" d="M86 172q0 64 25 128.5t65 118.5t88.5 107t97.5 102t89 95.5t65 95.5t25 94q0 58 -47 93l41 22q143 -66 143 -182q0 -81 -43 -163.5t-104 -150.5t-122 -133.5t-104 -137t-43 -136.5q0 -225 211 -225q63 0 111.5 38.5t48.5 108.5q0 24 -10 57q28 43 88 43q54 0 80 -32.5 t26 -71.5q0 -115 -100 -182.5t-250 -67.5q-179 0 -280 105t-101 274zM426 1255q0 46 32.5 78.5t76.5 32.5q46 0 78 -32.5t32 -78.5q0 -44 -32 -76t-78 -32q-44 0 -76.5 32t-32.5 76z" />
<glyph unicode="&#xc0;" horiz-adv-x="1208" d="M10 0l465 1221q12 40 31 69.5t37.5 45.5t45 27.5t44.5 15.5t45 8.5t39 7.5q12 -59 49 -174l360 -1057q24 -89 72 -164h-248q-5 46 -14 70l-137 401h-475l-156 -444q-2 -7 -3.5 -16t-2.5 -11h-152zM279 1737l79 -99q66 -81 133 -120t166 -39q57 0 86 37q-52 16 -91.5 45 t-62 58.5t-44 56.5t-49.5 44t-66 17h-151zM358 569h406l-199 584z" />
<glyph unicode="&#xc1;" horiz-adv-x="1208" d="M10 0l465 1221q12 40 31 69.5t37.5 45.5t45 27.5t44.5 15.5t45 8.5t39 7.5q12 -59 49 -174l360 -1057q24 -89 72 -164h-248q-5 46 -14 70l-137 401h-475l-156 -444q-2 -7 -3.5 -16t-2.5 -11h-152zM358 569h406l-199 584zM539 1516q52 16 91.5 45t62 58.5t44 56.5t49.5 44 t66 17h152l-80 -99q-66 -81 -133 -120t-166 -39q-57 0 -86 37z" />
<glyph unicode="&#xc2;" horiz-adv-x="1208" d="M10 0l465 1221q12 40 31 69.5t37.5 45.5t45 27.5t44.5 15.5t45 8.5t39 7.5q12 -59 49 -174l360 -1057q24 -89 72 -164h-248q-5 46 -14 70l-137 401h-475l-156 -444q-2 -7 -3.5 -16t-2.5 -11h-152zM256 1489q37 6 78.5 33.5t76 61.5t67 67t62.5 55.5t52 22.5h39h18 q27 0 59 -22.5t63.5 -55.5t64.5 -67t72.5 -61.5t76.5 -33.5q0 -3 -13 -9.5t-34 -12t-39 -5.5q-110 0 -174.5 48t-103.5 143q-44 -95 -104.5 -143t-174.5 -48q-18 0 -39 5.5t-34 12t-13 9.5zM358 569h406l-199 584z" />
<glyph unicode="&#xc3;" horiz-adv-x="1208" d="M10 0l465 1221q12 40 31 69.5t37.5 45.5t45 27.5t44.5 15.5t45 8.5t39 7.5q12 -59 49 -174l360 -1057q24 -89 72 -164h-248q-5 46 -14 70l-137 401h-475l-156 -444q-2 -7 -3.5 -16t-2.5 -11h-152zM201 1522q69 43 109 52q23 5 44 5q42 0 106 -19.5t143 -39t159 -19.5 q115 0 202.5 45.5t110.5 134.5q-101 -59 -180 -59q-55 0 -191.5 38t-207.5 38q-73 0 -132.5 -17.5t-104.5 -58t-58 -100.5zM358 569h406l-199 584z" />
<glyph unicode="&#xc4;" horiz-adv-x="1208" d="M10 0l465 1221q12 40 31 69.5t37.5 45.5t45 27.5t44.5 15.5t45 8.5t39 7.5q12 -59 49 -174l360 -1057q24 -89 72 -164h-248q-5 46 -14 70l-137 401h-475l-156 -444q-2 -7 -3.5 -16t-2.5 -11h-152zM270 1599q0 46 31 79.5t72 33.5t71.5 -33.5t30.5 -79.5q0 -47 -30 -79.5 t-72 -32.5t-72.5 32.5t-30.5 79.5zM358 569h406l-199 584zM750 1599q0 46 30.5 79.5t71.5 33.5t71.5 -33.5t30.5 -79.5q0 -47 -30 -79.5t-72 -32.5t-72 32.5t-30 79.5z" />
<glyph unicode="&#xc5;" horiz-adv-x="1208" d="M10 0l465 1221q12 40 31 69.5t37.5 45.5t45 27.5t44.5 15.5t45 8.5t39 7.5q12 -59 49 -174l360 -1057q24 -89 72 -164h-248q-5 46 -14 70l-137 401h-475l-156 -444q-2 -7 -3.5 -16t-2.5 -11h-152zM358 569h406l-199 584zM434 1616q0 -80 46.5 -125t109.5 -45 q85 0 144 53.5t59 132.5q0 76 -47.5 122t-112.5 46q-85 0 -142 -51t-57 -133zM516 1638q0 54 26.5 79.5t63.5 25.5q43 0 73 -33.5t30 -97.5q0 -55 -28.5 -82t-64.5 -27q-41 0 -70.5 35.5t-29.5 99.5z" />
<glyph unicode="&#xc6;" horiz-adv-x="1560" d="M-8 0l629 1202q10 27 10 48t-5.5 33.5t-19.5 33.5l15 31h411l350 6q23 -24 33.5 -75.5t8 -96t-14.5 -56.5h-39q-9 46 -69 78t-146 35l-174 6q-14 -243 -14 -500h321q28 0 47 6.5t24 13.5l5 7q4 -16 4 -41q0 -24 -7 -42.5t-16 -30t-27 -20t-30.5 -12.5t-36 -6t-34 -2 h-33.5q-2 0 -50.5 1t-91 2t-77.5 0q-2 -202 6 -480q0 -4 4 -12h389q28 0 47 6.5t24 13.5l5 7q4 -16 4 -41q0 -28 -8 -48.5t-24.5 -32.5t-32 -19.5t-40.5 -10.5t-39.5 -3.5t-39.5 -0.5h-498q2 35 2 96v375h-383l-217 -430q-3 -5 -5.5 -14t-4 -17t-2.5 -10h-160zM430 569h334 v521q0 127 2 170l-41 -109z" />
<glyph unicode="&#xc7;" horiz-adv-x="1267" d="M106 645q0 211 81.5 376.5t231 258t343.5 92.5q131 0 248 -50.5t151 -119.5q0 -36 -40 -100.5t-89 -85.5l-33 26q0 22 -15.5 55t-45 68t-83 59.5t-118.5 24.5q-82 0 -150.5 -28t-115 -76.5t-78.5 -115t-46.5 -140.5t-14.5 -156q0 -97 18 -187t55 -169t90.5 -137.5 t129.5 -92.5t166 -34q100 0 207 52t159 146q8 -16 8 -43q0 -123 -120 -203.5t-302 -89.5q-8 -27 -8 -47q0 -16 20.5 -26.5t50.5 -19t59.5 -21.5t50 -41.5t20.5 -71.5q0 -94 -68.5 -161.5t-165.5 -67.5q-73 0 -116 27.5t-43 76.5q0 24 8 45q43 -43 145 -43q48 0 81.5 21.5 t33.5 56.5q0 26 -28.5 45t-62.5 29.5t-62.5 35t-28.5 60.5q0 60 57 100q-138 2 -249 54.5t-183 142.5t-110 211.5t-38 263.5z" />
<glyph unicode="&#xc8;" horiz-adv-x="985" d="M135 1313l15 35h307l350 6q23 -24 33.5 -75.5t8 -96t-14.5 -56.5h-39q-9 46 -69 78t-146 35l-174 6q-15 -260 -15 -500h322q28 0 46.5 6.5t23.5 13.5l5 7q5 -16 5 -41q0 -24 -7 -42.5t-16.5 -30t-27.5 -20t-30.5 -12.5t-36 -6t-34 -2h-33.5q-2 0 -50.5 1t-91 2t-77.5 0 q-2 -202 6 -480q0 -4 4 -12h389q28 0 47 6.5t24 13.5l5 7q4 -16 4 -41q0 -28 -8 -48.5t-24.5 -32.5t-32 -19.5t-40.5 -10.5t-39.5 -3.5t-39.5 -0.5h-498l2 139v946q0 26 -1 49t-3.5 41.5t-4 32.5t-6.5 28t-6.5 20.5t-8 18t-7.5 14t-9 13.5zM207 1737l80 -99q66 -81 133 -120 t166 -39q57 0 86 37q-52 16 -91.5 45t-62.5 58.5t-44.5 56.5t-49.5 44t-66 17h-151z" />
<glyph unicode="&#xc9;" horiz-adv-x="985" d="M135 1313l15 35h307l350 6q23 -24 33.5 -75.5t8 -96t-14.5 -56.5h-39q-9 46 -69 78t-146 35l-174 6q-15 -260 -15 -500h322q28 0 46.5 6.5t23.5 13.5l5 7q5 -16 5 -41q0 -24 -7 -42.5t-16.5 -30t-27.5 -20t-30.5 -12.5t-36 -6t-34 -2h-33.5q-2 0 -50.5 1t-91 2t-77.5 0 q-2 -202 6 -480q0 -4 4 -12h389q28 0 47 6.5t24 13.5l5 7q4 -16 4 -41q0 -28 -8 -48.5t-24.5 -32.5t-32 -19.5t-40.5 -10.5t-39.5 -3.5t-39.5 -0.5h-498l2 139v946q0 26 -1 49t-3.5 41.5t-4 32.5t-6.5 28t-6.5 20.5t-8 18t-7.5 14t-9 13.5zM334 1516q52 16 91.5 45t62 58.5 t44 56.5t49.5 44t66 17h152l-80 -99q-66 -81 -133 -120t-166 -39q-57 0 -86 37z" />
<glyph unicode="&#xca;" horiz-adv-x="985" d="M137 1313l15 35h307l350 6q23 -24 33.5 -75.5t8 -96t-14.5 -56.5h-39q-9 46 -69 78t-146 35l-174 6q-15 -260 -15 -500h322q28 0 47 6.5t24 13.5l5 7q4 -16 4 -41q0 -24 -7 -42.5t-16.5 -30t-27.5 -20t-30.5 -12.5t-36 -6t-34 -2h-33.5q-2 0 -50.5 1t-91 2t-77.5 0 q-2 -202 6 -480q0 -4 4 -12h390q28 0 46.5 6.5t23.5 13.5l5 7q4 -16 4 -41q0 -28 -8 -48.5t-24.5 -32.5t-32 -19.5t-40.5 -10.5t-39.5 -3.5t-39.5 -0.5h-498l2 139v946q0 26 -1 49t-3.5 41.5t-4 32.5t-6.5 28t-6.5 20.5t-8 18t-7.5 14t-9 13.5zM139 1489q37 6 78.5 33.5 t76 61.5t67 67t62.5 55.5t52 22.5h39h18q27 0 59 -22.5t63.5 -55.5t64.5 -67t72.5 -61.5t76.5 -33.5q0 -3 -13 -9.5t-34 -12t-39 -5.5q-110 0 -174.5 48t-103.5 143q-44 -95 -104.5 -143t-174.5 -48q-18 0 -39 5.5t-34 12t-13 9.5z" />
<glyph unicode="&#xcb;" horiz-adv-x="985" d="M135 1313l15 35h307l350 6q23 -24 33.5 -75.5t8 -96t-14.5 -56.5h-39q-9 46 -69 78t-146 35l-174 6q-15 -260 -15 -500h322q28 0 46.5 6.5t23.5 13.5l5 7q5 -16 5 -41q0 -24 -7 -42.5t-16.5 -30t-27.5 -20t-30.5 -12.5t-36 -6t-34 -2h-33.5q-2 0 -50.5 1t-91 2t-77.5 0 q-2 -202 6 -480q0 -4 4 -12h389q28 0 47 6.5t24 13.5l5 7q4 -16 4 -41q0 -28 -8 -48.5t-24.5 -32.5t-32 -19.5t-40.5 -10.5t-39.5 -3.5t-39.5 -0.5h-498l2 139v946q0 26 -1 49t-3.5 41.5t-4 32.5t-6.5 28t-6.5 20.5t-8 18t-7.5 14t-9 13.5zM160 1599q0 46 30.5 79.5 t71.5 33.5t72 -33.5t31 -79.5q0 -47 -30.5 -79.5t-72.5 -32.5t-72 32.5t-30 79.5zM639 1599q0 46 30.5 79.5t71.5 33.5t72 -33.5t31 -79.5q0 -47 -30.5 -79.5t-72.5 -32.5t-72 32.5t-30 79.5z" />
<glyph unicode="&#xcc;" horiz-adv-x="661" d="M37 1737l80 -99q66 -81 133 -120t166 -39q57 0 86 37q-52 16 -91.5 45t-62.5 58.5t-44.5 56.5t-49.5 44t-66 17h-151zM180 1315l15 35q63 26 141 26q65 0 117 -24q-21 -481 -21 -811q0 -492 23 -541h-226q4 136 4 1090q0 30 -1.5 55.5t-3 43t-6 35t-7 26.5t-9 21.5 t-8.5 16t-9.5 15t-8.5 12.5z" />
<glyph unicode="&#xcd;" horiz-adv-x="661" d="M158 1516q52 16 91.5 45t62 58.5t44 56.5t49.5 44t66 17h152l-80 -99q-66 -81 -133 -120t-166 -39q-57 0 -86 37zM180 1315l15 35q63 26 141 26q65 0 117 -24q-21 -481 -21 -811q0 -492 23 -541h-226q4 136 4 1090q0 30 -1.5 55.5t-3 43t-6 35t-7 26.5t-9 21.5t-8.5 16 t-9.5 15t-8.5 12.5z" />
<glyph unicode="&#xce;" horiz-adv-x="661" d="M-31 1489q37 6 78.5 33.5t76 61.5t67 67t62.5 55.5t52 22.5h39h18q27 0 59 -22.5t63.5 -55.5t64.5 -67t72.5 -61.5t76.5 -33.5q0 -3 -13 -9.5t-34 -12t-39 -5.5q-110 0 -174.5 48t-103.5 143q-44 -95 -104.5 -143t-174.5 -48q-18 0 -39 5.5t-34 12t-13 9.5zM180 1315 l15 35q63 26 141 26q65 0 117 -24q-21 -481 -21 -811q0 -492 23 -541h-226q4 136 4 1090q0 30 -1.5 55.5t-3 43t-6 35t-7 26.5t-9 21.5t-8.5 16t-9.5 15t-8.5 12.5z" />
<glyph unicode="&#xcf;" horiz-adv-x="661" d="M33 1599q0 46 30.5 79.5t71.5 33.5t72 -33.5t31 -79.5q0 -47 -30.5 -79.5t-72.5 -32.5t-72 32.5t-30 79.5zM180 1315l15 35q63 26 141 26q65 0 117 -24q-21 -481 -21 -811q0 -492 23 -541h-226q4 136 4 1090q0 30 -1.5 55.5t-3 43t-6 35t-7 26.5t-9 21.5t-8.5 16t-9.5 15 t-8.5 12.5zM410 1599q0 46 30.5 79.5t71.5 33.5t71.5 -33.5t30.5 -79.5q0 -47 -30 -79.5t-72 -32.5t-72 32.5t-30 79.5z" />
<glyph unicode="&#xd1;" horiz-adv-x="1538" d="M182 1315l15 35q80 31 122 20q35 -42 66 -78t82.5 -94.5t228.5 -261t430 -494.5q19 -21 38 -53.5t28 -54.5l10 -23q-14 86 -14 129q4 10 4 654q0 159 -53 221l14 35q34 24 102 24q65 0 93 -22q-25 -567 -25 -961q0 -231 10 -391h-112l-779 891q-70 90 -84 127 q7 -40 7 -90t-2.5 -151t-2.5 -152q0 -456 21 -625h-148v33q3 399 3 731v330q0 84 -11 131.5t-43 89.5zM334 1522q69 43 109 52q23 5 44 5q42 0 106 -19.5t143 -39t159 -19.5q115 0 202.5 45.5t110.5 134.5q-101 -59 -180 -59q-55 0 -191.5 38t-207.5 38q-73 0 -132.5 -17.5 t-104.5 -58t-58 -100.5z" />
<glyph unicode="&#xd2;" horiz-adv-x="1392" d="M100 651q0 -129 29.5 -240.5t80 -190.5t117.5 -135.5t141.5 -84t152.5 -27.5q149 0 273.5 56t209 153.5t132 230t50.5 285.5q0 161 -43 291t-118 212.5t-173 126.5t-211 44q-137 0 -255.5 -53.5t-203.5 -147.5t-133.5 -228.5t-48.5 -291.5zM322 717q0 144 45 265t125 192 t178 71q104 0 194.5 -82.5t144.5 -225t54 -308.5q0 -145 -44.5 -267t-124 -194t-175.5 -72q-108 0 -200.5 89t-144.5 231.5t-52 300.5zM397 1737l80 -99q66 -81 133 -120t166 -39q57 0 86 37q-52 16 -91.5 45t-62 58.5t-44 56.5t-49.5 44t-66 17h-152z" />
<glyph unicode="&#xd3;" horiz-adv-x="1392" d="M100 651q0 -129 29.5 -240.5t80 -190.5t117.5 -135.5t141.5 -84t152.5 -27.5q149 0 273.5 56t209 153.5t132 230t50.5 285.5q0 161 -43 291t-118 212.5t-173 126.5t-211 44q-137 0 -255.5 -53.5t-203.5 -147.5t-133.5 -228.5t-48.5 -291.5zM322 717q0 144 45 265t125 192 t178 71q104 0 194.5 -82.5t144.5 -225t54 -308.5q0 -145 -44.5 -267t-124 -194t-175.5 -72q-108 0 -200.5 89t-144.5 231.5t-52 300.5zM522 1516q52 16 91.5 45t62.5 58.5t44.5 56.5t49.5 44t66 17h151l-80 -99q-66 -81 -133 -120t-166 -39q-57 0 -86 37z" />
<glyph unicode="&#xd4;" horiz-adv-x="1392" d="M100 651q0 -129 29.5 -240.5t80 -190.5t117.5 -135.5t141.5 -84t152.5 -27.5q149 0 273.5 56t209 153.5t132 230t50.5 285.5q0 161 -43 291t-118 212.5t-173 126.5t-211 44q-137 0 -255.5 -53.5t-203.5 -147.5t-133.5 -228.5t-48.5 -291.5zM322 717q0 144 45 265t125 192 t178 71q104 0 194.5 -82.5t144.5 -225t54 -308.5q0 -145 -44.5 -267t-124 -194t-175.5 -72q-108 0 -200.5 89t-144.5 231.5t-52 300.5zM328 1489q37 6 78.5 33.5t76 61.5t67 67t62.5 55.5t52 22.5h38h19q27 0 59 -22.5t63.5 -55.5t64.5 -67t72.5 -61.5t76.5 -33.5 q0 -3 -13 -9.5t-34 -12t-39 -5.5q-110 0 -175 48t-104 143q-44 -95 -104 -143t-174 -48q-18 0 -39 5.5t-34 12t-13 9.5z" />
<glyph unicode="&#xd5;" horiz-adv-x="1392" d="M100 651q0 -129 29.5 -240.5t80 -190.5t117.5 -135.5t141.5 -84t152.5 -27.5q149 0 273.5 56t209 153.5t132 230t50.5 285.5q0 161 -43 291t-118 212.5t-173 126.5t-211 44q-137 0 -255.5 -53.5t-203.5 -147.5t-133.5 -228.5t-48.5 -291.5zM256 1522q30 18 44 26.5 t47 19.5t63 11q42 0 105.5 -19.5t142.5 -39t159 -19.5q115 0 202.5 45.5t110.5 134.5q-101 -59 -180 -59q-55 0 -191.5 38t-207.5 38q-73 0 -132.5 -17.5t-104.5 -58t-58 -100.5zM322 717q0 144 45 265t125 192t178 71q104 0 194.5 -82.5t144.5 -225t54 -308.5 q0 -145 -44.5 -267t-124 -194t-175.5 -72q-108 0 -200.5 89t-144.5 231.5t-52 300.5z" />
<glyph unicode="&#xd6;" horiz-adv-x="1392" d="M100 651q0 -129 29.5 -240.5t80 -190.5t117.5 -135.5t141.5 -84t152.5 -27.5q149 0 273.5 56t209 153.5t132 230t50.5 285.5q0 161 -43 291t-118 212.5t-173 126.5t-211 44q-137 0 -255.5 -53.5t-203.5 -147.5t-133.5 -228.5t-48.5 -291.5zM322 717q0 144 45 265t125 192 t178 71q104 0 194.5 -82.5t144.5 -225t54 -308.5q0 -145 -44.5 -267t-124 -194t-175.5 -72q-108 0 -200.5 89t-144.5 231.5t-52 300.5zM348 1599q0 46 31 79.5t72 33.5t71.5 -33.5t30.5 -79.5q0 -47 -30 -79.5t-72 -32.5t-72.5 32.5t-30.5 79.5zM827 1599q0 46 31 79.5 t72 33.5t71.5 -33.5t30.5 -79.5q0 -47 -30 -79.5t-72 -32.5t-72.5 32.5t-30.5 79.5z" />
<glyph unicode="&#xd8;" horiz-adv-x="1392" d="M16 74l70 -72q62 66 150 156q69 -94 166.5 -141.5t209.5 -47.5q148 0 274.5 56.5t213 154.5t136.5 232t52 286q0 257 -94 420q18 16 50.5 45.5t48 44t34.5 35t27 35.5t8 29q0 16 -14 29t-50 36q-91 -108 -157 -176q-70 87 -166.5 131.5t-208.5 44.5q-192 0 -342 -91.5 t-234 -255.5t-88 -374q0 -247 82 -411q-109 -109 -168 -166zM324 713q0 224 102 377t244 153q98 0 171.5 -55t135.5 -156q-308 -314 -608 -612q-45 133 -45 293zM401 332q47 48 307 308.5t310 309.5q59 -138 59 -348q-2 -110 -35.5 -206.5t-86 -161.5t-117 -102.5 t-129.5 -37.5q-94 0 -174 63.5t-134 174.5z" />
<glyph unicode="&#xd9;" horiz-adv-x="1445" d="M168 1315l14 35q64 26 142 26q64 0 116 -24q-10 -254 -10 -897q0 -86 21.5 -151t53.5 -101t76.5 -58.5t82 -29t79.5 -6.5q150 0 251.5 79.5t109.5 194.5q8 67 8 711q0 159 -53 221l14 35q34 24 103 24q64 0 92 -22q-21 -476 -21 -908q0 -205 -139.5 -339t-382.5 -134 q-112 0 -195.5 21t-152 71t-105.5 141.5t-41 223.5q-10 390 -10 662q0 30 -1.5 55.5t-3 43t-6 35t-7 26.5t-9 21.5t-8.5 16t-9.5 15t-8.5 12.5zM401 1737l80 -99q66 -81 133 -120t166 -39q57 0 86 37q-52 16 -91.5 45t-62 58.5t-44 56.5t-49.5 44t-66 17h-152z" />
<glyph unicode="&#xda;" horiz-adv-x="1445" d="M168 1315l14 35q64 26 142 26q64 0 116 -24q-10 -254 -10 -897q0 -86 21.5 -151t53.5 -101t76.5 -58.5t82 -29t79.5 -6.5q150 0 251.5 79.5t109.5 194.5q8 67 8 711q0 159 -53 221l14 35q34 24 103 24q64 0 92 -22q-21 -476 -21 -908q0 -205 -139.5 -339t-382.5 -134 q-112 0 -195.5 21t-152 71t-105.5 141.5t-41 223.5q-10 390 -10 662q0 30 -1.5 55.5t-3 43t-6 35t-7 26.5t-9 21.5t-8.5 16t-9.5 15t-8.5 12.5zM592 1516q52 16 91.5 45t62 58.5t44 56.5t49.5 44t66 17h152l-80 -99q-66 -81 -133 -120t-166 -39q-57 0 -86 37z" />
<glyph unicode="&#xdb;" horiz-adv-x="1445" d="M168 1315l14 35q64 26 142 26q64 0 116 -24q-10 -254 -10 -897q0 -86 21.5 -151t53.5 -101t76.5 -58.5t82 -29t79.5 -6.5q150 0 251.5 79.5t109.5 194.5q8 67 8 711q0 159 -53 221l14 35q34 24 103 24q64 0 92 -22q-21 -476 -21 -908q0 -205 -139.5 -339t-382.5 -134 q-112 0 -195.5 21t-152 71t-105.5 141.5t-41 223.5q-10 390 -10 662q0 30 -1.5 55.5t-3 43t-6 35t-7 26.5t-9 21.5t-8.5 16t-9.5 15t-8.5 12.5zM377 1489q37 6 78.5 33.5t76 61.5t67 67t62.5 55.5t52 22.5h39h18q27 0 59 -22.5t63.5 -55.5t64.5 -67t72.5 -61.5t76.5 -33.5 q0 -3 -13 -9.5t-34 -12t-39 -5.5q-110 0 -175 48t-104 143q-44 -95 -104 -143t-174 -48q-18 0 -39 5.5t-34 12t-13 9.5z" />
<glyph unicode="&#xdc;" horiz-adv-x="1445" d="M168 1315l14 35q64 26 142 26q64 0 116 -24q-10 -254 -10 -897q0 -86 21.5 -151t53.5 -101t76.5 -58.5t82 -29t79.5 -6.5q150 0 251.5 79.5t109.5 194.5q8 67 8 711q0 159 -53 221l14 35q34 24 103 24q64 0 92 -22q-21 -476 -21 -908q0 -205 -139.5 -339t-382.5 -134 q-112 0 -195.5 21t-152 71t-105.5 141.5t-41 223.5q-10 390 -10 662q0 30 -1.5 55.5t-3 43t-6 35t-7 26.5t-9 21.5t-8.5 16t-9.5 15t-8.5 12.5zM389 1599q0 46 31 79.5t72 33.5t71.5 -33.5t30.5 -79.5q0 -47 -30 -79.5t-72 -32.5t-72.5 32.5t-30.5 79.5zM868 1599 q0 46 31 79.5t72 33.5t71.5 -33.5t30.5 -79.5q0 -47 -30 -79.5t-72 -32.5t-72.5 32.5t-30.5 79.5z" />
<glyph unicode="&#xdf;" horiz-adv-x="1171" d="M90 942l10 62q4 0 10.5 1.5t23 8t29.5 15.5t24.5 28t13.5 43q4 56 18 111t47.5 117t83 108.5t131.5 77t185 30.5q85 0 154.5 -23.5t116 -77.5t46.5 -130q0 -63 -25.5 -129.5t-62 -121.5t-73 -105.5t-62 -99.5t-25.5 -87q0 -28 21 -54.5t55 -49.5t74.5 -48t81.5 -55.5 t75 -66t55 -85.5t21 -108q0 -154 -99 -242t-259 -88q-112 0 -200.5 48t-88.5 129q0 35 23 71q8 -50 76 -92.5t200 -42.5q79 0 127.5 43.5t48.5 110.5q0 33 -20 63t-52 54.5t-71 49.5t-78 53t-71 59t-52 74t-20 93q0 55 23.5 111.5t57 106.5t66.5 102t56.5 117.5t23.5 133.5 q0 77 -46.5 123.5t-152.5 46.5q-105 0 -168 -64t-63 -179q0 -26 -3 -270t-3 -283q0 -431 33 -631h-209v29q0 3 2 100.5t4 225t2 204.5q0 270 -27 309q-20 29 -42 47.5t-34 22.5z" />
<glyph unicode="&#xe0;" horiz-adv-x="1019" d="M86 238q0 96 58 167t150.5 105.5t205.5 34.5q64 0 153 -21q4 82 4 123q0 68 -7 116t-26.5 92t-59 66.5t-99.5 22.5q-69 0 -113.5 -43.5t-44.5 -101.5q0 -3 1 -10.5t1 -10.5q-29 -20 -69 -20q-41 0 -70 25t-29 67q0 59 50 103t123 64.5t155 20.5q371 0 371 -293 q0 -10 -1 -46.5t-2 -125t-1 -225.5q0 -152 28 -213q37 -74 142 -74v-36q-30 -19 -89 -35.5t-102 -16.5q-39 0 -69 18t-45.5 43.5t-25.5 56t-13 50.5t-3 33q-28 -89 -116 -145t-176 -56q-92 0 -157.5 39.5t-94.5 98t-29 127.5zM223 1483l80 -140q108 -186 277 -186 q16 0 34.5 7t29.5 15t11 11q-52 16 -91 52.5t-61 76.5t-42.5 77.5t-48.5 62t-66 24.5h-123zM270 272q0 -60 41 -105.5t119 -45.5q72 0 136.5 31.5t80.5 66.5l6 256q-14 0 -42 -1.5t-92.5 -13t-115.5 -30.5t-92 -60.5t-41 -97.5z" />
<glyph unicode="&#xe1;" horiz-adv-x="1019" d="M86 238q0 96 58 167t150.5 105.5t205.5 34.5q64 0 153 -21q4 82 4 123q0 68 -7 116t-26.5 92t-59 66.5t-99.5 22.5q-69 0 -113.5 -43.5t-44.5 -101.5q0 -3 1 -10.5t1 -10.5q-29 -20 -69 -20q-41 0 -70 25t-29 67q0 59 50 103t123 64.5t155 20.5q371 0 371 -293 q0 -10 -1 -46.5t-2 -125t-1 -225.5q0 -152 28 -213q37 -74 142 -74v-36q-30 -19 -89 -35.5t-102 -16.5q-39 0 -69 18t-45.5 43.5t-25.5 56t-13 50.5t-3 33q-28 -89 -116 -145t-176 -56q-92 0 -157.5 39.5t-94.5 98t-29 127.5zM270 272q0 -60 41 -105.5t119 -45.5 q72 0 136.5 31.5t80.5 66.5l6 256q-14 0 -42 -1.5t-92.5 -13t-115.5 -30.5t-92 -60.5t-41 -97.5zM358 1190q52 16 91 52.5t61.5 76.5t43 77.5t48.5 62t66 24.5h123l-80 -140q-108 -186 -277 -186q-16 0 -34.5 7t-30 15t-11.5 11z" />
<glyph unicode="&#xe2;" horiz-adv-x="1019" d="M86 238q0 96 58 167t150.5 105.5t205.5 34.5q64 0 153 -21q4 82 4 123q0 68 -7 116t-26.5 92t-59 66.5t-99.5 22.5q-69 0 -113.5 -43.5t-44.5 -101.5q0 -3 1 -10.5t1 -10.5q-29 -20 -69 -20q-41 0 -70 25t-29 67q0 59 50 103t123 64.5t155 20.5q371 0 371 -293 q0 -10 -1 -46.5t-2 -125t-1 -225.5q0 -152 28 -213q37 -74 142 -74v-36q-30 -19 -89 -35.5t-102 -16.5q-39 0 -69 18t-45.5 43.5t-25.5 56t-13 50.5t-3 33q-28 -89 -116 -145t-176 -56q-92 0 -157.5 39.5t-94.5 98t-29 127.5zM174 1190q40 9 86.5 57t80 100t70 94t60.5 42 h33h16q24 0 52.5 -27.5t56.5 -68t57 -82t63.5 -75t67.5 -40.5q0 -3 -11.5 -11t-30 -15t-34.5 -7q-78 0 -116 25.5t-86 95.5q-12 16 -22.5 44t-15.5 48l-5 21q-18 -78 -45 -113q-39 -60 -81.5 -90.5t-119.5 -30.5q-16 0 -34.5 7t-30 15t-11.5 11zM270 272q0 -60 41 -105.5 t119 -45.5q72 0 136.5 31.5t80.5 66.5l6 256q-14 0 -42 -1.5t-92.5 -13t-115.5 -30.5t-92 -60.5t-41 -97.5z" />
<glyph unicode="&#xe3;" horiz-adv-x="1019" d="M86 238q0 96 58 167t150.5 105.5t205.5 34.5q64 0 153 -21q4 82 4 123q0 68 -7 116t-26.5 92t-59 66.5t-99.5 22.5q-69 0 -113.5 -43.5t-44.5 -101.5q0 -3 1 -10.5t1 -10.5q-29 -20 -69 -20q-41 0 -70 25t-29 67q0 59 50 103t123 64.5t155 20.5q371 0 371 -293 q0 -10 -1 -46.5t-2 -125t-1 -225.5q0 -152 28 -213q37 -74 142 -74v-36q-30 -19 -89 -35.5t-102 -16.5q-39 0 -69 18t-45.5 43.5t-25.5 56t-13 50.5t-3 33q-28 -89 -116 -145t-176 -56q-92 0 -157.5 39.5t-94.5 98t-29 127.5zM152 1241q74 55 129 51q34 -2 125 -33.5 t159 -35.5q100 -6 177 35t96 128q-83 -59 -152 -55q-36 4 -130.5 34.5t-145.5 33.5q-61 4 -113.5 -9.5t-93 -51.5t-51.5 -97zM270 272q0 -60 41 -105.5t119 -45.5q72 0 136.5 31.5t80.5 66.5l6 256q-14 0 -42 -1.5t-92.5 -13t-115.5 -30.5t-92 -60.5t-41 -97.5z" />
<glyph unicode="&#xe4;" horiz-adv-x="1019" d="M86 238q0 96 58 167t150.5 105.5t205.5 34.5q64 0 153 -21q4 82 4 123q0 68 -7 116t-26.5 92t-59 66.5t-99.5 22.5q-69 0 -113.5 -43.5t-44.5 -101.5q0 -3 1 -10.5t1 -10.5q-29 -20 -69 -20q-41 0 -70 25t-29 67q0 59 50 103t123 64.5t155 20.5q371 0 371 -293 q0 -10 -1 -46.5t-2 -125t-1 -225.5q0 -152 28 -213q37 -74 142 -74v-36q-30 -19 -89 -35.5t-102 -16.5q-39 0 -69 18t-45.5 43.5t-25.5 56t-13 50.5t-3 33q-28 -89 -116 -145t-176 -56q-92 0 -157.5 39.5t-94.5 98t-29 127.5zM205 1313q0 46 30.5 79t71.5 33t72 -33t31 -79 q0 -47 -30.5 -80t-72.5 -33t-72 33t-30 80zM270 272q0 -60 41 -105.5t119 -45.5q72 0 136.5 31.5t80.5 66.5l6 256q-14 0 -42 -1.5t-92.5 -13t-115.5 -30.5t-92 -60.5t-41 -97.5zM582 1313q0 46 30.5 79t71.5 33t71.5 -33t30.5 -79q0 -47 -30 -80t-72 -33t-72 33t-30 80z " />
<glyph unicode="&#xe5;" horiz-adv-x="1019" d="M86 238q0 96 58 167t150.5 105.5t205.5 34.5q64 0 153 -21q4 82 4 123q0 68 -7 116t-26.5 92t-59 66.5t-99.5 22.5q-69 0 -113.5 -43.5t-44.5 -101.5q0 -3 1 -10.5t1 -10.5q-29 -20 -69 -20q-41 0 -70 25t-29 67q0 59 50 103t123 64.5t155 20.5q371 0 371 -293 q0 -10 -1 -46.5t-2 -125t-1 -225.5q0 -152 28 -213q37 -74 142 -74v-36q-30 -19 -89 -35.5t-102 -16.5q-39 0 -69 18t-45.5 43.5t-25.5 56t-13 50.5t-3 33q-28 -89 -116 -145t-176 -56q-92 0 -157.5 39.5t-94.5 98t-29 127.5zM270 272q0 -60 41 -105.5t119 -45.5 q72 0 136.5 31.5t80.5 66.5l6 256q-14 0 -42 -1.5t-92.5 -13t-115.5 -30.5t-92 -60.5t-41 -97.5zM328 1327q0 -80 46 -125t109 -45q85 0 144 53.5t59 132.5q0 76 -47.5 122t-112.5 46q-85 0 -141.5 -51t-56.5 -133zM410 1350q0 54 26.5 79t63.5 25q43 0 72.5 -33.5 t29.5 -97.5q0 -55 -28 -82t-64 -27q-41 0 -70.5 36t-29.5 100z" />
<glyph unicode="&#xe6;" horiz-adv-x="1529" d="M90 238q0 76 36 136t91.5 97t134 63t151 38t156.5 18q3 44 3 61q0 56 -3.5 94.5t-14.5 79t-31.5 64.5t-56.5 39.5t-87 15.5q-69 0 -113.5 -43.5t-44.5 -101.5l2 -21q-29 -20 -69 -20q-41 0 -70 25t-29 67q0 59 50 103t123 64.5t155 20.5q116 0 200 -37.5t122 -109.5 q37 68 117 107.5t167 39.5q66 0 121 -15.5t92.5 -40.5t66.5 -59t45.5 -68.5t27.5 -71.5t14.5 -65t3.5 -52v-68q-17 -10 -171 -23t-299 -21l-146 -7q16 -418 307 -418q89 0 176.5 48.5t142.5 131.5q8 -24 8 -49q0 -76 -59 -143.5t-151 -105.5t-189 -38q-269 0 -367 240 q-132 -240 -331 -240q-92 0 -157.5 39.5t-94.5 98t-29 127.5zM274 272q0 -60 41 -105.5t119 -45.5q162 0 252 141q-22 73 -27 266q-33 -2 -90.5 -17.5t-126.5 -44.5t-118.5 -80.5t-49.5 -113.5zM825 610l445 62v6q-2 20 -5.5 38t-12 49.5t-24.5 56.5t-38.5 49.5t-58.5 38.5 t-80 14q-43 0 -77.5 -17.5t-58.5 -46.5t-42 -71t-29 -84.5t-19 -94.5z" />
<glyph unicode="&#xe7;" horiz-adv-x="966" d="M96 461q0 255 133 416t349 161q59 0 113.5 -10.5t101 -31.5t74.5 -57.5t28 -84.5q0 -37 -28 -64.5t-76 -27.5q-39 0 -68 29q-14 133 -186 133q-77 0 -137 -58t-90.5 -147.5t-30.5 -190.5q0 -104 32.5 -192t104.5 -147.5t172 -59.5q89 0 176.5 48.5t142.5 131.5 q8 -24 8 -49q0 -107 -109.5 -190t-250.5 -95q-8 -27 -8 -47q0 -16 20.5 -26.5t50.5 -19t59.5 -21.5t50 -41.5t20.5 -71.5q0 -94 -68.5 -161.5t-165.5 -67.5q-73 0 -116.5 27.5t-43.5 76.5q0 24 8 45q43 -43 146 -43q48 0 81.5 21.5t33.5 56.5q0 21 -19 37t-45.5 26.5 t-53.5 22.5t-46 33.5t-19 50.5q0 59 58 100q-65 2 -123 21t-109.5 58t-89 94.5t-59 136t-21.5 178.5z" />
<glyph unicode="&#xe8;" horiz-adv-x="1007" d="M96 461q0 164 52.5 295t151 206.5t226.5 75.5q73 0 132 -18.5t96.5 -46t65.5 -68t42.5 -77t22.5 -80t10 -70.5t2 -55v-48q-41 -24 -119 -24l-493 6q2 -31 2 -82q0 -162 83.5 -254t217.5 -92q89 0 176.5 48.5t142.5 131.5q8 -24 8 -49q0 -76 -59 -143.5t-151 -105.5 t-189 -38q-67 0 -127 17.5t-113 55.5t-92 94t-62.5 138.5t-25.5 182.5zM231 1483l80 -140q108 -186 277 -186q16 0 34.5 7t30 15t11.5 11q-52 16 -91 52.5t-61.5 76.5t-43 77.5t-48.5 62t-66 24.5h-123zM279 639l438 8q0 69 -22 130t-73.5 104t-123.5 43q-49 0 -85.5 -21 t-61.5 -63t-40.5 -87.5t-31.5 -113.5z" />
<glyph unicode="&#xe9;" horiz-adv-x="1007" d="M96 461q0 164 52.5 295t151 206.5t226.5 75.5q73 0 132 -18.5t96.5 -46t65.5 -68t42.5 -77t22.5 -80t10 -70.5t2 -55v-48q-41 -24 -119 -24l-493 6q2 -31 2 -82q0 -162 83.5 -254t217.5 -92q89 0 176.5 48.5t142.5 131.5q8 -24 8 -49q0 -76 -59 -143.5t-151 -105.5 t-189 -38q-67 0 -127 17.5t-113 55.5t-92 94t-62.5 138.5t-25.5 182.5zM279 639l438 8q0 69 -22 130t-73.5 104t-123.5 43q-49 0 -85.5 -21t-61.5 -63t-40.5 -87.5t-31.5 -113.5zM350 1190q52 16 91 52.5t61 76.5t42.5 77.5t48.5 62t66 24.5h123l-80 -140 q-108 -186 -276 -186q-16 0 -34.5 7t-30 15t-11.5 11z" />
<glyph unicode="&#xea;" horiz-adv-x="1007" d="M96 461q0 164 52.5 295t151 206.5t226.5 75.5q73 0 132 -18.5t96.5 -46t65.5 -68t42.5 -77t22.5 -80t10 -70.5t2 -55v-48q-41 -24 -119 -24l-493 6q2 -31 2 -82q0 -162 83.5 -254t217.5 -92q89 0 176.5 48.5t142.5 131.5q8 -24 8 -49q0 -76 -59 -143.5t-151 -105.5 t-189 -38q-67 0 -127 17.5t-113 55.5t-92 94t-62.5 138.5t-25.5 182.5zM195 1190q40 9 86.5 57t80 100t70 94t60.5 42h32h17q24 0 52.5 -27.5t56.5 -68t57 -82t63.5 -75t67.5 -40.5q0 -3 -11.5 -11t-30 -15t-34.5 -7q-42 0 -71 6.5t-52.5 24t-39 36t-40.5 54.5 q-12 16 -22.5 44t-15.5 48l-5 21q-18 -78 -45 -113q-39 -60 -81.5 -90.5t-119.5 -30.5q-16 0 -34.5 7t-29.5 15t-11 11zM279 639l438 8q0 69 -22 130t-73.5 104t-123.5 43q-49 0 -85.5 -21t-61.5 -63t-40.5 -87.5t-31.5 -113.5z" />
<glyph unicode="&#xeb;" horiz-adv-x="1007" d="M96 461q0 164 52.5 295t151 206.5t226.5 75.5q73 0 132 -18.5t96.5 -46t65.5 -68t42.5 -77t22.5 -80t10 -70.5t2 -55v-48q-41 -24 -119 -24l-493 6q2 -31 2 -82q0 -162 83.5 -254t217.5 -92q89 0 176.5 48.5t142.5 131.5q8 -24 8 -49q0 -76 -59 -143.5t-151 -105.5 t-189 -38q-67 0 -127 17.5t-113 55.5t-92 94t-62.5 138.5t-25.5 182.5zM223 1313q0 46 31 79t72 33t71.5 -33t30.5 -79q0 -47 -30 -80t-72 -33t-72.5 33t-30.5 80zM279 639l438 8q0 69 -22 130t-73.5 104t-123.5 43q-49 0 -85.5 -21t-61.5 -63t-40.5 -87.5t-31.5 -113.5z M600 1313q0 46 30.5 79t71.5 33t72 -33t31 -79q0 -47 -30.5 -80t-72.5 -33t-72 33t-30 80z" />
<glyph unicode="&#xec;" horiz-adv-x="573" d="M111 946v37q82 51 182 51q67 0 87 -44.5t15 -127.5q-12 -244 -12 -708q0 -96 12 -154h-202v8l16 690q2 67 -7 117.5t-24 74t-30 37.5t-26 17zM111 1483l79 -140q108 -186 277 -186q16 0 34.5 7t30 15t11.5 11q-52 16 -91 52.5t-61.5 76.5t-43 77.5t-48.5 62t-66 24.5 h-122z" />
<glyph unicode="&#xed;" horiz-adv-x="573" d="M111 946v37q82 51 182 51q67 0 87 -44.5t15 -127.5q-12 -244 -12 -708q0 -96 12 -154h-202v8l16 690q2 67 -7 117.5t-24 74t-30 37.5t-26 17zM127 1190q52 16 91 52.5t61 76.5t42.5 77.5t48.5 62t66 24.5h123l-80 -140q-108 -186 -276 -186q-16 0 -34.5 7t-30 15 t-11.5 11z" />
<glyph unicode="&#xee;" horiz-adv-x="573" d="M111 946v37q82 51 182 51q67 0 87 -44.5t15 -127.5q-12 -244 -12 -708q0 -96 12 -154h-202v8l16 690q2 67 -7 117.5t-24 74t-30 37.5t-26 17zM111 1190q40 9 86.5 57t80 100t70 94t60.5 42h32h17q24 0 52.5 -27.5t56.5 -68t57 -82t63.5 -75t67.5 -40.5q0 -3 -11.5 -11 t-30 -15t-34.5 -7q-42 0 -71 6.5t-52.5 24t-39 36t-40.5 54.5q-12 16 -22.5 44t-15.5 48l-5 21q-18 -78 -45 -113q-39 -60 -81.5 -90.5t-119.5 -30.5q-16 0 -34.5 7t-29.5 15t-11 11z" />
<glyph unicode="&#xef;" horiz-adv-x="573" d="M111 946v37q82 51 182 51q67 0 87 -44.5t15 -127.5q-12 -244 -12 -708q0 -96 12 -154h-202v8l16 690q2 67 -7 117.5t-24 74t-30 37.5t-26 17zM111 1313q0 46 30.5 79t71.5 33t71.5 -33t30.5 -79q0 -47 -30 -80t-72 -33t-72 33t-30 80zM487 1313q0 46 31 79t72 33 t71.5 -33t30.5 -79q0 -47 -30 -80t-72 -33t-72.5 33t-30.5 80z" />
<glyph unicode="&#xf1;" horiz-adv-x="1202" d="M102 983q82 51 183 51q35 0 58 -13.5t33 -37t13.5 -55t-0.5 -66.5l-10 -57q25 42 60 80t83 74t113 57.5t137 21.5q104 0 173.5 -73t72.5 -170q1 -20 -1.5 -194t1.5 -349t20 -252h-200q-7 48 -4 98l4 492q2 153 -34 219.5t-132 67.5q-170 0 -289 -140q0 -366 4 -583 q0 -76 16 -154h-204v8l8 690q1 67 -9 117.5t-25.5 74t-31 37.5t-26.5 17l-11 2zM260 1241q74 55 129 51q34 -2 125.5 -33.5t159.5 -35.5q99 -6 176 35t96 128q-83 -59 -151 -55q-36 4 -131 34.5t-146 33.5q-61 4 -113.5 -9.5t-93 -51.5t-51.5 -97z" />
<glyph unicode="&#xf2;" d="M96 487q0 -16 1.5 -39.5t10.5 -76t25 -101t49 -105t77 -97t115 -68t158 -27.5q109 0 204 45t160 120.5t102.5 176.5t37.5 211q0 126 -35.5 226t-96.5 161t-138 93t-164 32q-219 0 -362.5 -156.5t-143.5 -394.5zM279 1483l79 -140q108 -186 277 -186q16 0 34.5 7t30 15 t11.5 11q-52 16 -91 52.5t-61.5 76.5t-43 77.5t-48.5 62t-66 24.5h-122zM297 573q0 61 13.5 122t40 116t72.5 89t105 34q127 0 216.5 -135.5t89.5 -337.5q0 -170 -71.5 -278.5t-174.5 -108.5q-125 0 -208 144t-83 355z" />
<glyph unicode="&#xf3;" d="M96 487q0 -16 1.5 -39.5t10.5 -76t25 -101t49 -105t77 -97t115 -68t158 -27.5q109 0 204 45t160 120.5t102.5 176.5t37.5 211q0 126 -35.5 226t-96.5 161t-138 93t-164 32q-219 0 -362.5 -156.5t-143.5 -394.5zM297 573q0 61 13.5 122t40 116t72.5 89t105 34 q127 0 216.5 -135.5t89.5 -337.5q0 -170 -71.5 -278.5t-174.5 -108.5q-125 0 -208 144t-83 355zM414 1190q52 16 91 52.5t61 76.5t42.5 77.5t48.5 62t66 24.5h123l-80 -140q-108 -186 -277 -186q-16 0 -34.5 7t-29.5 15t-11 11z" />
<glyph unicode="&#xf4;" d="M96 487q0 -16 1.5 -39.5t10.5 -76t25 -101t49 -105t77 -97t115 -68t158 -27.5q109 0 204 45t160 120.5t102.5 176.5t37.5 211q0 126 -35.5 226t-96.5 161t-138 93t-164 32q-219 0 -362.5 -156.5t-143.5 -394.5zM244 1190q40 9 86.5 57t80 100t70 94t60.5 42h32h17 q24 0 52.5 -27.5t56.5 -68t57 -82t63.5 -75t67.5 -40.5q0 -3 -11.5 -11t-30 -15t-34.5 -7q-42 0 -71 6.5t-52.5 24t-39 36t-40.5 54.5q-12 16 -23 44t-15 48l-5 21q-18 -78 -45 -113q-39 -60 -81.5 -90.5t-119.5 -30.5q-16 0 -34.5 7t-29.5 15t-11 11zM297 573 q0 61 13.5 122t40 116t72.5 89t105 34q127 0 216.5 -135.5t89.5 -337.5q0 -170 -71.5 -278.5t-174.5 -108.5q-125 0 -208 144t-83 355z" />
<glyph unicode="&#xf5;" d="M96 487q0 -16 1.5 -39.5t10.5 -76t25 -101t49 -105t77 -97t115 -68t158 -27.5q109 0 204 45t160 120.5t102.5 176.5t37.5 211q0 126 -35.5 226t-96.5 161t-138 93t-164 32q-219 0 -362.5 -156.5t-143.5 -394.5zM223 1241q74 55 129 51q34 -2 125.5 -33.5t159.5 -35.5 q99 -6 176 35t96 128q-83 -59 -151 -55q-36 4 -131 34.5t-146 33.5q-61 4 -113.5 -9.5t-93 -51.5t-51.5 -97zM297 573q0 61 13.5 122t40 116t72.5 89t105 34q127 0 216.5 -135.5t89.5 -337.5q0 -170 -71.5 -278.5t-174.5 -108.5q-125 0 -208 144t-83 355z" />
<glyph unicode="&#xf6;" d="M96 487q0 -16 1.5 -39.5t10.5 -76t25 -101t49 -105t77 -97t115 -68t158 -27.5q109 0 204 45t160 120.5t102.5 176.5t37.5 211q0 126 -35.5 226t-96.5 161t-138 93t-164 32q-219 0 -362.5 -156.5t-143.5 -394.5zM256 1313q0 46 30.5 79t71.5 33t72 -33t31 -79 q0 -47 -30.5 -80t-72.5 -33t-72 33t-30 80zM297 573q0 61 13.5 122t40 116t72.5 89t105 34q127 0 216.5 -135.5t89.5 -337.5q0 -170 -71.5 -278.5t-174.5 -108.5q-125 0 -208 144t-83 355zM633 1313q0 46 30.5 79t71.5 33t72 -33t31 -79q0 -47 -30.5 -80t-72.5 -33t-72 33 t-30 80z" />
<glyph unicode="&#xf7;" horiz-adv-x="1001" d="M180 461v131q0 -8 344 -8q219 0 259 7q19 4 26 9q-6 -34 -19.5 -59t-37.5 -39.5t-44.5 -23.5t-58.5 -12.5t-59 -4t-64 -0.5h-20q-27 0 -151.5 1t-137.5 1q-29 0 -37 -2zM365 229q0 48 33.5 81.5t82.5 33.5q47 0 81 -34t34 -81q0 -49 -33.5 -82.5t-81.5 -33.5 q-49 0 -82.5 33.5t-33.5 82.5zM365 819q0 48 33.5 81.5t82.5 33.5q47 0 81 -34t34 -81q0 -49 -33.5 -83t-81.5 -34q-49 0 -82.5 33.5t-33.5 83.5z" />
<glyph unicode="&#xf8;" d="M59 74l70 -72q39 43 94 102q114 -131 309 -131q109 0 204 45t160 120.5t102.5 176.5t37.5 211q0 187 -80 318l19 16q96 84 96 117q0 16 -14 29.5t-49 35.5q-21 -25 -61 -72t-46 -55q-120 123 -299 123q-219 0 -362.5 -156.5t-143.5 -394.5q0 -25 2.5 -59t21.5 -110 t52 -136q-42 -41 -74.5 -71.5t-38.5 -36.5zM297 573q0 61 13.5 122t40 116t72.5 89t105 34q68 0 129 -43t103 -119q-98 -101 -432 -434q-31 108 -31 235zM365 246l434 438q35 -100 35 -223q0 -170 -71.5 -278.5t-174.5 -108.5q-68 0 -126 45.5t-97 126.5z" />
<glyph unicode="&#xf9;" horiz-adv-x="1204" d="M90 948v35q30 20 79 35.5t91 15.5q37 0 61 -9.5t37 -29.5t18.5 -49.5t6 -69t-0.5 -89.5q0 -11 -0.5 -17.5t-0.5 -17v-19.5l-2 -319q-2 -153 31.5 -215.5t128.5 -63.5q167 0 282 135q6 252 6 410q0 67 -8.5 124.5t-17.5 78.5q-25 57 -76 69v35q84 47 158 47 q86 0 107.5 -37t21.5 -172v-516q0 -37 3.5 -68.5t8 -55t13.5 -42t16 -30.5t20.5 -21.5t21 -14.5t22.5 -8.5t21.5 -4t22 -2t19.5 -1.5v-36q-20 -13 -78 -32.5t-105 -19.5q-160 0 -168 230q-26 -42 -60.5 -79.5t-83 -73t-113 -56.5t-136.5 -21q-104 0 -172.5 73.5t-70.5 170.5 q0 89 4 277q3 153 -2 232.5t-29 147.5q-10 29 -29 47.5t-33 22.5zM301 1483l80 -140q108 -186 276 -186q16 0 34.5 7t30 15t11.5 11q-52 16 -91 52.5t-61 76.5t-42.5 77.5t-48.5 62t-66 24.5h-123z" />
<glyph unicode="&#xfa;" horiz-adv-x="1204" d="M90 948v35q30 20 79 35.5t91 15.5q37 0 61 -9.5t37 -29.5t18.5 -49.5t6 -69t-0.5 -89.5q0 -11 -0.5 -17.5t-0.5 -17v-19.5l-2 -319q-2 -153 31.5 -215.5t128.5 -63.5q167 0 282 135q6 252 6 410q0 67 -8.5 124.5t-17.5 78.5q-25 57 -76 69v35q84 47 158 47 q86 0 107.5 -37t21.5 -172v-516q0 -37 3.5 -68.5t8 -55t13.5 -42t16 -30.5t20.5 -21.5t21 -14.5t22.5 -8.5t21.5 -4t22 -2t19.5 -1.5v-36q-20 -13 -78 -32.5t-105 -19.5q-160 0 -168 230q-26 -42 -60.5 -79.5t-83 -73t-113 -56.5t-136.5 -21q-104 0 -172.5 73.5t-70.5 170.5 q0 89 4 277q3 153 -2 232.5t-29 147.5q-10 29 -29 47.5t-33 22.5zM436 1190q52 16 91 52.5t61 76.5t42.5 77.5t48.5 62t66 24.5h123l-80 -140q-108 -186 -276 -186q-16 0 -34.5 7t-30 15t-11.5 11z" />
<glyph unicode="&#xfb;" horiz-adv-x="1204" d="M90 948v35q30 20 79 35.5t91 15.5q37 0 61 -9.5t37 -29.5t18.5 -49.5t6 -69t-0.5 -89.5q0 -11 -0.5 -17.5t-0.5 -17v-19.5l-2 -319q-2 -153 31.5 -215.5t128.5 -63.5q167 0 282 135q6 252 6 410q0 67 -8.5 124.5t-17.5 78.5q-25 57 -76 69v35q84 47 158 47 q86 0 107.5 -37t21.5 -172v-516q0 -37 3.5 -68.5t8 -55t13.5 -42t16 -30.5t20.5 -21.5t21 -14.5t22.5 -8.5t21.5 -4t22 -2t19.5 -1.5v-36q-20 -13 -78 -32.5t-105 -19.5q-160 0 -168 230q-26 -42 -60.5 -79.5t-83 -73t-113 -56.5t-136.5 -21q-104 0 -172.5 73.5t-70.5 170.5 q0 89 4 277q3 153 -2 232.5t-29 147.5q-10 29 -29 47.5t-33 22.5zM252 1190q40 9 86.5 57t80 100t70 94t60.5 42h33h16q24 0 52.5 -27.5t56.5 -68t57 -82t63.5 -75t67.5 -40.5q0 -3 -11.5 -11t-30 -15t-34.5 -7q-42 0 -71 6.5t-52.5 24t-39 36t-40.5 54.5q-12 16 -23 44 t-15 48l-5 21q-18 -78 -45 -113q-39 -60 -81 -90.5t-119 -30.5q-16 0 -34.5 7t-30 15t-11.5 11z" />
<glyph unicode="&#xfc;" horiz-adv-x="1204" d="M90 948v35q30 20 79 35.5t91 15.5q37 0 61 -9.5t37 -29.5t18.5 -49.5t6 -69t-0.5 -89.5q0 -11 -0.5 -17.5t-0.5 -17v-19.5l-2 -319q-2 -153 31.5 -215.5t128.5 -63.5q167 0 282 135q6 252 6 410q0 67 -8.5 124.5t-17.5 78.5q-25 57 -76 69v35q84 47 158 47 q86 0 107.5 -37t21.5 -172v-516q0 -37 3.5 -68.5t8 -55t13.5 -42t16 -30.5t20.5 -21.5t21 -14.5t22.5 -8.5t21.5 -4t22 -2t19.5 -1.5v-36q-20 -13 -78 -32.5t-105 -19.5q-160 0 -168 230q-26 -42 -60.5 -79.5t-83 -73t-113 -56.5t-136.5 -21q-104 0 -172.5 73.5t-70.5 170.5 q0 89 4 277q3 153 -2 232.5t-29 147.5q-10 29 -29 47.5t-33 22.5zM293 1313q0 46 30.5 79t71.5 33t72 -33t31 -79q0 -47 -30.5 -80t-72.5 -33t-72 33t-30 80zM670 1313q0 46 30.5 79t71.5 33t71.5 -33t30.5 -79q0 -47 -30 -80t-72 -33t-72 33t-30 80z" />
<glyph unicode="&#xff;" horiz-adv-x="929" d="M10 983q25 19 77.5 35t92.5 16q68 0 99 -32t47 -103q22 -106 194 -590q22 -66 55 -133q4 31 43 137l162 426q29 73 29 129q0 58 -35 78v37q21 20 64 35.5t84 15.5q69 0 69 -69q0 -47 -51 -174l-418 -1004q-62 -152 -92 -201q-66 -108 -170 -129q-29 -6 -63 -6 q-86 0 -129 49t-43 127q0 29 2 43q10 -25 54 -40t91 -15q163 0 211 115l94 225q5 13 12 24.5t11 16.5l4 6q-38 11 -72.5 42.5t-44.5 66.5l-184 577q-20 64 -46.5 113.5t-48.5 75t-45.5 42.5t-33.5 21.5t-17 5.5zM258 1313q0 46 30.5 79t71.5 33t72 -33t31 -79 q0 -47 -30.5 -80t-72.5 -33t-72 33t-30 80zM635 1313q0 46 30.5 79t71.5 33t72 -33t31 -79q0 -47 -30.5 -80t-72.5 -33t-72 33t-30 80z" />
<glyph unicode="&#x152;" horiz-adv-x="1730" d="M102 641q4 150 48.5 279t123 224t194.5 149.5t255 54.5h479l350 6q23 -24 33.5 -75.5t8 -96t-14.5 -56.5h-39q-9 46 -69 78t-146 35l-174 6q-14 -243 -14 -500h321q28 0 47 6.5t24 13.5l5 7q4 -16 4 -41q0 -24 -7 -42.5t-16 -30t-27 -20t-30.5 -12.5t-36 -6t-34 -2h-33.5 q-2 0 -50.5 1t-91 2t-77.5 0q-2 -202 6 -480q0 -4 4 -12h389q28 0 47 6.5t24 13.5l5 7q4 -16 4 -41q0 -28 -8 -48.5t-24.5 -32.5t-32 -19.5t-40.5 -10.5t-39.5 -3.5t-39.5 -0.5h-699q-99 0 -190.5 24t-172 75.5t-140 125.5t-93.5 181t-33 235zM326 739q-4 -175 63.5 -320.5 t183 -227.5t252.5 -82h105v30v951q0 87 -15 149h-217q-68 0 -134 -36t-118.5 -99.5t-85.5 -159t-34 -205.5z" />
<glyph unicode="&#x153;" horiz-adv-x="1720" d="M98 473q-3 160 61.5 289.5t181.5 202.5t263 73q102 0 187.5 -46.5t134.5 -139.5q46 89 129.5 137.5t183.5 48.5q73 0 132 -18.5t96.5 -46t65.5 -68t42.5 -77t22.5 -80t10 -70.5t2 -55v-48q-41 -24 -119 -24l-498 6q2 -93 21 -169.5t55 -135t95 -91t136 -32.5 q90 0 178 48.5t142 131.5q8 -24 8 -49q0 -76 -59 -143.5t-151 -105.5t-189 -38q-69 0 -133.5 19.5t-121 64t-81.5 107.5q-48 -91 -150 -142t-219 -51q-82 0 -155.5 29.5t-134 88.5t-97.5 158t-39 226zM297 573q2 -139 38.5 -252.5t102.5 -180t150 -66.5q100 0 164 108 t61 279q-3 207 -81 340t-204 133q-102 0 -168 -101.5t-63 -259.5zM985 639l445 8q0 51 -13.5 99t-39 88.5t-69 65t-98.5 24.5q-94 0 -146.5 -75.5t-78.5 -209.5z" />
<glyph unicode="&#x178;" horiz-adv-x="1005" d="M10 1313l15 35q61 28 143 28q87 0 121 -37q46 -114 144.5 -304t152.5 -277q12 37 35 76l170 301q54 96 2 178l14 35q61 28 115 28q50 0 108 -28q0 -35 -40 -128t-79 -153l-252 -405q0 -36 -1 -142t-1 -168q0 -239 17 -352h-223v33q0 84 1 200.5t1 149.5q0 198 -2 233 q-15 15 -43 64l-197 344q-27 47 -58 105t-43 79.5t-30 48t-33 37t-37 19.5zM207 1599q0 46 30.5 79.5t71.5 33.5t72 -33.5t31 -79.5q0 -47 -30.5 -79.5t-72.5 -32.5t-72 32.5t-30 79.5zM686 1599q0 46 30.5 79.5t71.5 33.5t72 -33.5t31 -79.5q0 -47 -30.5 -79.5t-72.5 -32.5 t-72 32.5t-30 79.5z" />
<glyph unicode="&#x2c6;" horiz-adv-x="823" d="M88 1190q40 9 86.5 57t80 100t70 94t60.5 42h33h16q24 0 52.5 -27.5t56.5 -68t57 -82t63.5 -75t67.5 -40.5q0 -3 -11.5 -11t-30 -15t-34.5 -7q-78 0 -116 25.5t-86 95.5q-12 16 -22.5 44t-15.5 48l-5 21q-18 -78 -45 -113q-39 -60 -81.5 -90.5t-119.5 -30.5 q-16 0 -34.5 7t-30 15t-11.5 11z" />
<glyph unicode="&#x2dc;" horiz-adv-x="778" d="M51 1241q74 55 129 51q34 -2 125.5 -33.5t159.5 -35.5q99 -6 176 35t96 128q-83 -59 -151 -55q-36 4 -131 34.5t-146 33.5q-61 4 -113.5 -9.5t-93 -51.5t-51.5 -97z" />
<glyph unicode="&#x2000;" horiz-adv-x="900" />
<glyph unicode="&#x2001;" horiz-adv-x="1800" />
<glyph unicode="&#x2002;" horiz-adv-x="900" />
<glyph unicode="&#x2003;" horiz-adv-x="1800" />
<glyph unicode="&#x2004;" horiz-adv-x="600" />
<glyph unicode="&#x2005;" horiz-adv-x="450" />
<glyph unicode="&#x2006;" horiz-adv-x="300" />
<glyph unicode="&#x2007;" horiz-adv-x="300" />
<glyph unicode="&#x2008;" horiz-adv-x="225" />
<glyph unicode="&#x2009;" horiz-adv-x="360" />
<glyph unicode="&#x200a;" horiz-adv-x="100" />
<glyph unicode="&#x2010;" horiz-adv-x="618" d="M59 436v131q0 -8 222 -8q218 0 258 7q18 4 26 9q-6 -34 -19.5 -59t-37.5 -39.5t-44.5 -23.5t-58.5 -12.5t-59 -4t-64 -0.5h-20q-27 0 -90 1t-76 1q-29 0 -37 -2z" />
<glyph unicode="&#x2011;" horiz-adv-x="618" d="M59 436v131q0 -8 222 -8q218 0 258 7q18 4 26 9q-6 -34 -19.5 -59t-37.5 -39.5t-44.5 -23.5t-58.5 -12.5t-59 -4t-64 -0.5h-20q-27 0 -90 1t-76 1q-29 0 -37 -2z" />
<glyph unicode="&#x2012;" horiz-adv-x="618" d="M59 436v131q0 -8 222 -8q218 0 258 7q18 4 26 9q-6 -34 -19.5 -59t-37.5 -39.5t-44.5 -23.5t-58.5 -12.5t-59 -4t-64 -0.5h-20q-27 0 -90 1t-76 1q-29 0 -37 -2z" />
<glyph unicode="&#x2013;" horiz-adv-x="925" d="M59 438v131q0 -8 529 -8q224 0 265 10q13 3 19 7q-6 -34 -19.5 -59t-38 -40t-45 -24t-58.5 -12.5t-59.5 -4t-65.5 -0.5h-9h-8q-27 0 -243.5 1t-229.5 1q-29 0 -37 -2z" />
<glyph unicode="&#x2014;" horiz-adv-x="1390" d="M53 438v131q0 -8 1000 -8q224 0 265 10q13 3 19 7q-6 -34 -19.5 -59t-38 -40t-45 -24t-58.5 -12.5t-59.5 -4t-65.5 -0.5h-17q-27 0 -479 1t-465 1q-29 0 -37 -2z" />
<glyph unicode="&#x2018;" horiz-adv-x="452" d="M82 1186q0 80 68.5 178t191.5 178l37 -49q-135 -129 -135 -225q0 -52 16 -71t43 -19q6 -49 -26.5 -86t-77.5 -37q-58 0 -87.5 34.5t-29.5 96.5z" />
<glyph unicode="&#x2019;" horiz-adv-x="452" d="M70 1104q135 129 135 225q0 52 -16 71t-44 19q-6 49 27 86t78 37q58 0 87.5 -34t29.5 -97q0 -79 -69 -177.5t-192 -178.5z" />
<glyph unicode="&#x201a;" horiz-adv-x="452" d="M70 -246q135 129 135 226q0 52 -16 71t-44 19q-6 49 27 86t78 37q58 0 87.5 -34.5t29.5 -97.5q0 -79 -69 -177.5t-192 -178.5z" />
<glyph unicode="&#x201c;" horiz-adv-x="813" d="M84 1186q0 80 68.5 178t191.5 178l37 -49q-135 -129 -135 -225q0 -52 16 -71t43 -19q6 -49 -26.5 -86t-77.5 -37q-58 0 -87.5 34.5t-29.5 96.5zM442 1186q0 80 68.5 178t191.5 178l37 -49q-135 -129 -135 -225q0 -52 16 -71t44 -19q6 -49 -27 -86t-78 -37 q-58 0 -87.5 34.5t-29.5 96.5z" />
<glyph unicode="&#x201d;" horiz-adv-x="813" d="M70 1104q135 129 135 225q0 52 -16 71t-44 19q-6 49 27 86t78 37q58 0 87.5 -34t29.5 -97q0 -79 -69 -177.5t-192 -178.5zM428 1104q135 129 135 225q0 52 -16 71t-43 19q-6 49 26.5 86t77.5 37q58 0 87.5 -34t29.5 -97q0 -80 -68.5 -178t-191.5 -178z" />
<glyph unicode="&#x201e;" horiz-adv-x="813" d="M74 -246q135 129 135 226q0 52 -16 71t-43 19q-6 49 26.5 86t77.5 37q58 0 87.5 -34.5t29.5 -97.5q0 -80 -68.5 -178t-191.5 -178zM432 -246q135 129 135 226q0 52 -16 71t-43 19q-6 49 26.5 86t77.5 37q58 0 87.5 -34.5t29.5 -97.5q0 -80 -68.5 -178t-191.5 -178z" />
<glyph unicode="&#x2022;" horiz-adv-x="868" d="M178 506q0 104 74 178t180 74q104 0 179 -74t75 -178q0 -105 -74.5 -179.5t-179.5 -74.5q-106 0 -180 74t-74 180z" />
<glyph unicode="&#x2026;" horiz-adv-x="1357" d="M158 84q0 44 32 76.5t78 32.5q44 0 76.5 -32.5t32.5 -76.5q0 -46 -32.5 -78.5t-76.5 -32.5q-46 0 -78 32.5t-32 78.5zM578 84q0 44 32 76.5t78 32.5q44 0 76.5 -32.5t32.5 -76.5q0 -46 -32.5 -78.5t-76.5 -32.5q-46 0 -78 32.5t-32 78.5zM987 84q0 44 32.5 76.5 t78.5 32.5q44 0 76 -32.5t32 -76.5q0 -46 -32 -78.5t-76 -32.5q-46 0 -78.5 32.5t-32.5 78.5z" />
<glyph unicode="&#x202f;" horiz-adv-x="360" />
<glyph unicode="&#x2039;" horiz-adv-x="755" d="M80 506q23 21 41 41l268 319q46 56 90 86t78 32.5t58 -5t44 -23.5q-18 -6 -42 -27t-39 -39l-15 -18l-227 -303q-11 -16 -28 -31.5t-28 -23.5l-12 -8q43 -29 68 -64l227 -303q55 -70 96 -84q-20 -16 -44 -23.5t-58 -5t-78 32.5t-90 86l-268 320z" />
<glyph unicode="&#x203a;" horiz-adv-x="755" d="M82 55q20 -16 44 -23.5t58 -5t78 32.5t90 86l269 320l41 41q-23 21 -41 41l-269 319q-46 56 -90 86t-78 32.5t-58 -5t-44 -23.5q18 -6 42 -27t39 -39l15 -18l228 -303q11 -16 28 -31.5t28 -23.5l11 -8q-42 -29 -67 -64l-228 -303q-55 -70 -96 -84z" />
<glyph unicode="&#x205f;" horiz-adv-x="450" />
<glyph unicode="&#x20ac;" horiz-adv-x="1183" d="M25 731l24 131q0 -6 127 -6q56 236 227.5 376t413.5 140q123 0 205 -31t102.5 -84.5t-26.5 -126.5q-3 39 -90.5 79t-214.5 40q-174 0 -297 -112.5t-160 -282.5h385q219 0 259 7q19 4 26 9q-5 -29 -17.5 -51.5t-26 -37t-39 -25t-43 -15.5t-52 -7.5t-51.5 -2.5h-55h-20 h-378q0 -72 10 -164h264h1h1h1h1h1h1h1h1h1h1h1h1h1h1h1h1h1h1h1h1h2q216 0 252 12q7 2 11 5q-6 -34 -19.5 -59t-38 -40t-45 -24t-58.5 -12.5t-59.5 -4t-65.5 -0.5h-9h-8h-222q102 -354 461 -354q30 0 74.5 8.5t108.5 37.5t106 73q3 -118 -92.5 -178t-259.5 -60 q-236 0 -386.5 127t-197.5 348h-106q-29 0 -37 -2l20 131q28 -4 105 -4q-2 25 -2 74q0 59 4 88h-95q-28 0 -36 -2z" />
<glyph unicode="&#x2122;" horiz-adv-x="1642" d="M72 1292l4 62q70 0 133 108h82l-17 -108h129q26 0 44.5 6.5t24.5 13.5l5 6q17 -54 -13 -90.5t-93 -36.5q-4 0 -46 1.5t-51 0.5q0 -66 -1 -152t-1 -138v-44.5t2 -36.5t6.5 -35t12.5 -23.5t21 -20t32 -8.5q38 -4 85.5 13t57.5 32q13 -66 -33 -120t-132 -54 q-110 0 -148.5 53t-38.5 164q0 44 4 137.5t4 136.5q0 78 -12 92q-12 16 -27 26t-22.5 12.5t-11.5 2.5zM551 1292v41q67 37 129 37q50 0 65.5 -30.5t10.5 -86.5q96 121 235 121q61 0 104.5 -34t59.5 -87q92 121 236 121q71 0 118.5 -49.5t49.5 -116.5v-88q0 -22 -1.5 -81 t-1.5 -91q0 -193 17 -262h-150q-7 33 -4 195.5t2 195.5q3 93 -18 132.5t-78 39.5q-94 0 -164 -65q0 -13 -2 -86t-2 -123q0 -203 19 -289h-150q-4 59 -4.5 122t1 147t1.5 122q0 94 -20.5 133t-75.5 39q-102 0 -176 -84q0 -233 4 -370q0 -22 12 -109h-156l9 459q1 40 -6 70 t-17.5 44t-21 22t-18.5 9z" />
<glyph unicode="&#xe000;" horiz-adv-x="1034" d="M0 0v1034h1034v-1034h-1034z" />
<glyph unicode="&#xfb01;" horiz-adv-x="1214" d="M90 942l10 62q4 0 10.5 1.5t23 8t29.5 15.5t24.5 28t13.5 43q4 56 19 111t50.5 117t88 108.5t139 77t194.5 30.5q66 0 138 -22.5t128 -72t56 -112.5q0 -46 -22 -74.5t-53 -35.5t-64 0t-56 26q1 2 2 5t2 12t0 18q-3 50 -61.5 94.5t-147.5 44.5q-110 0 -172.5 -71 t-62.5 -176q0 -143 -6 -172h153q27 0 45 6t23 12l4 6q4 -16 4 -39q0 -126 -222 -109q-5 1 -7 1v-150q0 -590 33 -735h-209v29q0 3 2 100.5t4 225t2 204.5q0 270 -27 309q-20 29 -42 47.5t-34 22.5zM776 946v37q82 51 182 51q35 0 58 -13.5t32.5 -37t13 -55t-0.5 -66.5 q-12 -244 -12 -708q0 -96 12 -154h-203v8l16 690q2 67 -7 117.5t-24 74t-30 37.5t-26 17z" />
<glyph unicode="&#xfb02;" horiz-adv-x="1245" d="M92 942l10 62q4 0 10.5 1.5t23 8t29.5 15.5t24.5 28t13.5 43q4 56 19 111t50.5 117t88 108.5t139 77t194.5 30.5q182 0 326 -71q21 -10 33.5 -23t18.5 -25.5t7 -37.5t-0.5 -43.5t-4.5 -59t-5 -70.5q-12 -250 -11.5 -590t9.5 -538q1 -25 12 -86h-205v31q2 226 2 535.5 t-1 506.5l-1 197q0 31 -4 51q-38 38 -111.5 72t-142.5 34q-110 0 -172.5 -71t-62.5 -176q0 -143 -6 -172h198q27 0 45 6t22 12l5 6q4 -16 4 -39q0 -34 -17 -57.5t-41 -34t-59.5 -15.5t-60.5 -5t-57.5 2t-38.5 2v-150q0 -590 33 -735h-209v29q0 3 2 100.5t4 225t2 204.5 q0 270 -27 309q-20 29 -42 47.5t-34 22.5z" />
<glyph unicode="&#xfb03;" horiz-adv-x="1916" d="M92 942l10 62q4 0 10.5 1.5t23 8t29.5 15.5t24.5 28t13.5 43q4 57 16.5 107t43 105.5t76.5 94.5t123.5 64.5t176.5 25.5q100 0 188 -33.5t142 -101.5q131 182 401 182q66 0 138 -22.5t128 -72t56 -112.5q0 -57 -31.5 -85.5t-75.5 -28.5q-50 0 -88 30q4 11 4 27 q0 51 -58 99t-151 48q-110 0 -172.5 -71t-62.5 -176q0 -143 -6 -172h153q27 0 45 6t23 12l4 6q4 -16 4 -39q0 -110 -164 -110q-15 0 -37.5 1t-27.5 1q0 -744 32 -885h-209v29q0 3 2 100.5t4.5 225t2.5 204.5q0 270 -27 309q-20 29 -42 47.5t-34 22.5l-12 4l10 62 q4 0 10.5 1.5t23 8t29.5 15.5t24.5 28t13.5 43q8 93 36 166q-31 53 -109 84.5t-167 31.5q-108 0 -183 -51t-75 -151q0 -143 -6 -172h133q27 0 45 6t23 12l4 6q4 -16 4 -39q0 -37 -15.5 -60.5t-43 -32t-52.5 -11.5t-56 -2.5t-42 -1.5v-150q0 -590 33 -735h-209v29 q0 3 2 100.5t4 225t2 204.5q0 270 -27 309q-20 29 -42 47.5t-34 22.5zM1454 946v37q82 51 182 51q59 0 82 -35t23 -98q0 -14 -2 -17q-13 -21 -13 -730q0 -91 13 -154h-203l16 698q0 67 -10 117.5t-22.5 74t-28.5 37.5t-24 16.5t-13 2.5z" />
</font>
</defs>
</svg>
