<?xml version="1.0" standalone="no"?>
<!DOCTYPE svg PUBLIC "-//W3C//DTD SVG 1.1//EN" "http://www.w3.org/Graphics/SVG/1.1/DTD/svg11.dtd" >
<svg xmlns="http://www.w3.org/2000/svg">
<metadata></metadata>
<defs>
<font id="fontin_smallcapsregular" horiz-adv-x="1001" >
<font-face units-per-em="2048" ascent="1638" descent="-410" />
<missing-glyph horiz-adv-x="583" />
<glyph horiz-adv-x="2048" />
<glyph horiz-adv-x="2048" />
<glyph unicode="&#xd;" horiz-adv-x="2048" />
<glyph horiz-adv-x="1024" />
<glyph unicode=" "  horiz-adv-x="583" />
<glyph unicode="&#x09;" horiz-adv-x="583" />
<glyph unicode="&#xa0;" horiz-adv-x="583" />
<glyph unicode="!" horiz-adv-x="501" d="M123 1135v39q60 38 117 38q76 0 107.5 -29t31.5 -87q0 -25 -17 -129q-18 -108 -22 -160l-45 -496h-76l-57 711q-3 37 -12.5 65.5t-17.5 38.5zM145 84q0 44 32.5 76.5t78.5 32.5q44 0 76.5 -32.5t32.5 -76.5q0 -46 -32.5 -78.5t-76.5 -32.5q-46 0 -78.5 32.5t-32.5 78.5z " />
<glyph unicode="&#x22;" horiz-adv-x="802" d="M82 1118q40 36 63.5 95t31.5 115.5t15.5 109t24.5 84.5t49 32h107l-23 -165q-30 -210 -186 -271q-14 -6 -33.5 -7t-33 2t-15.5 5zM410 1118q40 36 63.5 95t31.5 115.5t15.5 109t24.5 84.5t49 32h106l-22 -165q-30 -210 -186 -271q-14 -6 -33.5 -7t-33 2t-15.5 5z" />
<glyph unicode="#" horiz-adv-x="1441" d="M92 395l14 131q0 -4 302 -8q2 24 11.5 122t14.5 144h-268q-29 0 -37 -2l14 131q0 -4 301 -8q19 226 19 305q0 45 -17 127q51 39 91 39q16 0 28 -5t19 -16t11.5 -21.5t6 -30t2 -33t0.5 -37.5q0 -35 -33 -328h271q18 214 18 305q0 50 -16 127q51 39 90 39q16 0 28 -5 t19 -16t11.5 -21.5t6 -30t2 -33t0.5 -37.5q0 -44 -32 -328h98q225 0 266 10q13 3 19 7q-6 -34 -19.5 -59t-38 -40t-45 -24t-58.5 -12.5t-59.5 -4t-65.5 -0.5h-17h-95q-5 -46 -14 -134t-14 -130h104q225 0 266 10q13 3 19 7q-6 -34 -19.5 -59t-38 -40t-45 -24t-58.5 -12.5 t-59.5 -4t-65.5 -0.5h-17h-99q-23 -214 -30 -379l-140 -30q6 55 16.5 140.5t18.5 150t13 118.5h-275q-25 -230 -31 -379l-139 -30q44 385 47 411h-264q-29 0 -37 -2zM528 518h275q6 53 28 264h-272q-2 -19 -13.5 -114.5t-17.5 -149.5z" />
<glyph unicode="$" horiz-adv-x="937" d="M129 1012q0 132 86.5 238t239.5 124q-1 28 -4.5 75.5t-4.5 66.5q45 10 58 10q10 0 18 -2.5t13.5 -7.5t9.5 -10.5t6 -15.5t3 -18t1 -21.5v-23t-1 -25.5t-1 -26q123 -8 206 -59.5t83 -136.5q0 -32 -19 -78q-6 54 -88 94.5t-184 46.5q-1 -56 -2 -206.5t-2 -223.5 q51 -31 85.5 -53t80 -56.5t75.5 -68t58 -75t41.5 -91t13.5 -104.5q0 -143 -96 -250t-254 -133l4 -199h-100q0 129 2 190q-134 1 -214.5 57.5t-80.5 127.5q0 39 24 69q12 -45 91 -81.5t174 -36.5h6q4 372 4 483q-43 28 -54 35.5t-50.5 35t-53 39.5t-45 39.5t-44 45t-33.5 47 t-29.5 55t-15.5 57.5t-7 66zM287 1067q0 -55 45 -103t129 -100q0 279 -2 375q-77 -11 -124.5 -54t-47.5 -118zM545 535q-2 -115 2 -416q160 43 160 186q0 65 -42 119t-120 111z" />
<glyph unicode="%" horiz-adv-x="1634" d="M133 1024q0 -161 76.5 -245.5t193.5 -84.5q156 0 255 103t102 254q0 156 -78.5 241.5t-200.5 85.5q-155 0 -251.5 -98.5t-96.5 -255.5zM270 1067q0 105 44 166t118 61q89 0 142 -75.5t53 -204.5q0 -107 -50.5 -172.5t-123.5 -65.5q-86 0 -134.5 79t-48.5 212zM287 0 q526 751 711.5 1026t189.5 324q38 30 82 30q61 0 61 -41q0 -18 -13 -45t-25.5 -45.5t-34 -47.5t-23.5 -32t-185.5 -262t-371 -532t-246.5 -375h-145zM901 307q0 -161 76.5 -245.5t193.5 -84.5q156 0 255 103t102 254q0 156 -78.5 242t-200.5 86q-155 0 -251.5 -99 t-96.5 -256zM1038 350q0 105 44 166.5t118 61.5q89 0 142 -76t53 -205q0 -107 -50.5 -172.5t-123.5 -65.5q-86 0 -134.5 79t-48.5 212z" />
<glyph unicode="&#x26;" horiz-adv-x="1335" d="M92 289q0 -128 97.5 -218.5t259.5 -90.5q226 0 354 116q77 -57 161.5 -86.5t157.5 -29.5q91 0 140 40.5t49 94.5q-59 -23 -107 -23q-122 0 -291 139q104 185 117 467q14 0 41.5 -1t38.5 -1q54 0 94.5 28.5t40.5 68.5l-2 32q-10 -18 -63 -18h-256l-17 -25q15 -76 15 -131 q0 -51 -1.5 -83t-7.5 -85.5t-22 -102.5t-41 -93q-184 166 -338 387q23 13 44.5 26.5t72.5 53t87 77.5t65.5 92.5t29.5 106.5q0 92 -78 149.5t-203 57.5q-155 0 -246 -74.5t-91 -197.5q0 -56 34 -145.5t95 -186.5q-107 -72 -168.5 -160t-61.5 -184zM264 381q0 130 94 197 q174 -261 375 -428q-66 -50 -180 -50q-123 0 -206 84t-83 197zM358 1020q0 64 40.5 99.5t111.5 35.5q81 0 122.5 -42t41.5 -118q0 -138 -199 -264q-117 179 -117 289z" />
<glyph unicode="'" horiz-adv-x="475" d="M82 1118q40 36 63.5 95t31.5 115.5t15.5 109t24.5 84.5t49 32h107l-23 -165q-30 -210 -186 -271q-14 -6 -33.5 -7t-33 2t-15.5 5z" />
<glyph unicode="(" horiz-adv-x="675" d="M131 485q0 -244 68 -477t182.5 -380.5t239.5 -147.5q-10 0 -43 47.5t-78 141t-87 211.5t-71 280t-29 325q0 113 14.5 222t38.5 196t54 164.5t61 133.5t59.5 97t49.5 61.5t31 20.5q-137 0 -251 -128.5t-176.5 -333.5t-62.5 -433z" />
<glyph unicode=")" horiz-adv-x="675" d="M55 -520q10 0 43 47.5t77.5 141t86.5 211.5t71 280t29 325q0 155 -27.5 302.5t-67.5 251t-84.5 183.5t-78.5 119t-49 39q137 0 251 -128.5t176.5 -333.5t62.5 -433q0 -244 -68 -477t-182.5 -380.5t-239.5 -147.5z" />
<glyph unicode="*" horiz-adv-x="823" d="M4 1112q5 29 17.5 51.5t26.5 37t38.5 24.5t43 15t51 7.5t51.5 3t55 0.5h14l-4 6q-123 224 -158 238q34 12 60 12q32 0 60 -14t54.5 -45t41.5 -53.5t42 -67.5l9 -22q4 16 8 22q127 204 127 250v4q59 -48 59 -113q0 -28 -13.5 -65.5t-24.5 -59.5t-38 -69l-14 -25 q-2 -4 -6 -6h61q222 0 246 17q-6 -37 -23 -63.5t-38.5 -41t-54.5 -22.5t-61.5 -10.5t-68.5 -2.5h-59l8 -12q12 -20 30 -51t28.5 -49t25 -41.5t23.5 -37.5t19 -28t17 -21t13 -10q-35 -12 -62 -12q-34 0 -62 13.5t-53.5 45.5t-40 55t-41.5 72q-3 6 -5 9l-9 24l-10 -24 q-98 -170 -113 -206q-8 -22 -8 -34v-4q-59 48 -59 115q0 31 14 69.5t26.5 62t41.5 72.5q-39 2 -111 2q-151 0 -174 -18z" />
<glyph unicode="+" horiz-adv-x="964" d="M113 457v131q0 -8 299 -8v26q0 223 -10 264q-3 13 -7 19q45 10 66 10q17 0 29.5 -4t21 -9t14 -17t8.5 -19.5t4 -25.5t1.5 -26.5t0 -31t-0.5 -31.5q0 -5 -1 -57.5t-1 -97.5h43q218 0 258 7q18 4 26 9q-6 -34 -19.5 -59t-37.5 -39.5t-44.5 -23.5t-58.5 -12.5t-59 -4 t-64 -0.5h-20h-26q-3 -147 -3 -281q0 -25 3 -37h-132q9 0 9 318q-49 0 -110 0.5t-104 1t-48 0.5q-29 0 -37 -2z" />
<glyph unicode="," horiz-adv-x="409" d="M6 -246q135 129 135 226q0 52 -16 71t-43 19q-6 49 26.5 86t77.5 37q58 0 87.5 -34.5t29.5 -97.5q0 -80 -68.5 -178t-191.5 -178z" />
<glyph unicode="-" horiz-adv-x="618" d="M59 436v131q0 -8 222 -8q218 0 258 7q18 4 26 9q-6 -34 -19.5 -59t-37.5 -39.5t-44.5 -23.5t-58.5 -12.5t-59 -4t-64 -0.5h-20q-27 0 -90 1t-76 1q-29 0 -37 -2z" />
<glyph unicode="." horiz-adv-x="409" d="M82 84q0 44 32.5 76.5t78.5 32.5q44 0 76 -32.5t32 -76.5q0 -46 -32 -78.5t-76 -32.5q-46 0 -78.5 32.5t-32.5 78.5z" />
<glyph unicode="/" horiz-adv-x="595" d="M-33 -500q183 732 290 1245t99 596q9 14 54 32t84 18q44 0 47 -54q3 -24 -3.5 -57t-16 -67.5t-11.5 -43.5q-1 -2 -60.5 -251.5t-122.5 -515.5t-124 -539.5t-74 -362.5h-162z" />
<glyph unicode="0" d="M82 567q0 -123 21 -223.5t56 -169t83 -115t101 -67.5t110 -21q145 0 252.5 87.5t161 232t53.5 323.5q0 287 -107 438.5t-270 151.5q-139 0 -244.5 -83t-161 -227.5t-55.5 -326.5zM260 651q2 177 62 301.5t145 124.5q112 0 191 -152.5t79 -387.5q0 -192 -68.5 -325.5 t-150.5 -133.5q-108 0 -180.5 163t-77.5 410z" />
<glyph unicode="1" d="M143 1010l471 198h31l51 -86q-6 -122 -6 -157q0 -347 4 -811q0 -71 17 -154h-203v8l6 852q0 110 -37 139l-297 -92z" />
<glyph unicode="2" d="M125 0h596q93 0 130.5 34t37.5 83q0 26 -6 47q-19 -19 -54.5 -22t-189.5 -3h-350q11 9 30.5 24t75 64.5t106 100.5t112.5 125.5t106.5 145.5t75 155t30.5 159q0 56 -20 105.5t-61.5 92.5t-115 68t-169.5 25q-129 0 -229.5 -53.5t-100.5 -132.5q0 -34 26 -58t64 -24 q34 0 66 22v15q0 51 45 90t108 39q90 0 135 -73t45 -179q0 -92 -50.5 -203.5t-123 -205.5t-144.5 -173.5t-124 -128.5l-51 -49v-90z" />
<glyph unicode="3" d="M102 -80q32 -4 54 -4q65 0 129 11t129 38t114.5 67t82 103t34.5 141q0 52 -9.5 95t-23.5 72.5t-37.5 52.5t-44.5 36.5t-51 23.5t-51 14.5t-51 9.5l22 55q2 0 4 2q92 42 151.5 118.5t59.5 159.5q0 45 -15 85.5t-54.5 71t-98.5 30.5q-65 0 -112 -40t-41 -104 q-55 -37 -105.5 -15.5t-50.5 75.5q0 78 93.5 132t220.5 54q93 0 165 -23t114 -61.5t63.5 -82.5t21.5 -91q0 -89 -66.5 -166.5t-185.5 -138.5q47 -7 83.5 -17.5t78.5 -33.5t70 -56.5t46.5 -89.5t18.5 -129q0 -100 -41 -183t-107 -137.5t-152 -92.5t-174 -55t-175 -17 q-27 0 -48 9.5t-32 22.5t-18 26t-9 22z" />
<glyph unicode="4" d="M31 233q42 129 159.5 347.5t242.5 403.5t185 224h125l-4 -86q-6 -122 -6 -157q-2 -282 0 -623q113 0 154.5 4t58.5 21q37 -162 -162 -164h-49q0 -149 2 -217q0 -71 17 -154h-203v8l2 363h-496zM211 342h342l4 506q2 80 14 156q-63 -69 -182 -285t-178 -377z" />
<glyph unicode="5" d="M141 -80q32 -4 54 -4q80 0 153 22t134.5 66.5t99.5 120t41 172.5q0 72 -17.5 130.5t-44.5 95t-64 62.5t-71.5 38.5t-71.5 17.5q-41 6 -78.5 6.5t-55.5 -1.5l-17 -3l-19 33l33 475l33 27h332h51q113 0 144 3.5t48 20.5q37 -162 -161 -164h-340l-13 -288q527 0 527 -414 q0 -100 -34.5 -185t-92 -143t-134 -99t-159.5 -60t-168 -19q-27 0 -48 9.5t-32 22.5t-18 26t-9 22z" />
<glyph unicode="6" d="M100 569q0 -90 12 -172t41 -160.5t72.5 -136t112 -92.5t154.5 -35q102 0 184.5 41.5t134.5 112t79.5 160.5t27.5 190q0 187 -87 279t-229 92q-147 0 -295 -107q19 256 111.5 382t228.5 126q76 0 136 -24t89 -68q9 30 9 57q0 44 -24 75.5t-66 48t-87 23.5t-98 7 q-71 0 -139.5 -25t-135.5 -85t-117.5 -149t-82 -228t-31.5 -312zM303 633v53q37 23 91.5 38t105.5 15q225 0 225 -342q0 -319 -184 -319q-57 0 -100.5 34.5t-69 88t-41.5 129.5t-21.5 148.5t-5.5 154.5z" />
<glyph unicode="7" d="M98.5 1171.5q-2.5 -17.5 5.5 -38t18.5 -40.5t35.5 -38.5t57.5 -32.5t84 -22.5t114.5 -8.5q97 0 175 8.5t107 16.5l29 8l-397 -944q-31 -82 -58.5 -131t-43 -63t-36.5 -23q21 -16 50.5 -24.5t65.5 -7t71.5 31.5t58.5 88l514 1192l-32 35h-543h-51q-123 0 -164 3.5 t-58 20.5q-1 -13 -3.5 -30.5z" />
<glyph unicode="8" d="M109 291q0 84 28 156.5t73.5 121t84.5 77.5t80 50q-110 86 -171 164t-61 168q0 153 104 246.5t283 93.5q145 0 235.5 -71.5t90.5 -186.5q0 -52 -19 -102.5t-45 -86t-62 -69t-61.5 -51.5t-50.5 -33q58 -43 93.5 -71t83 -71.5t73.5 -80t45 -83t19 -93.5q0 -172 -130.5 -284 t-324.5 -112q-52 0 -101.5 10t-98.5 34t-86 59t-59.5 90.5t-22.5 124.5zM260 332q0 -111 67.5 -179.5t168.5 -70.5q92 -1 167.5 66t75.5 149q0 43 -20 85t-63.5 85t-80.5 74t-100 79l-12 9l-10 7.5t-11 8.5q-182 -97 -182 -313zM324 1096q0 -69 59 -134.5t170 -146.5 q20 10 38 22.5t40.5 35.5t39 49t27.5 64t11 81q0 94 -53.5 146.5t-147.5 52.5q-85 0 -134.5 -44.5t-49.5 -125.5z" />
<glyph unicode="9" d="M94 694q0 -176 79.5 -267.5t211.5 -96.5h23q144 0 292 104q-22 -257 -111.5 -381.5t-226.5 -124.5q-74 0 -143.5 33.5t-101.5 79.5q-8 -27 -8 -55q0 -60 47.5 -101.5t112 -58t137.5 -16.5q71 0 139 25.5t135 86t117 150.5t81 231t31 315q0 89 -12 170t-41.5 158 t-73 133.5t-111.5 90.5t-153 34q-102 0 -184 -41.5t-133.5 -113t-79 -162.5t-27.5 -193zM287 776q0 324 182 324h10q65 -3 112 -51t71 -128t34.5 -165t10.5 -183q0 -57 -2 -84q-34 -21 -89 -35t-104 -14q-225 0 -225 336z" />
<glyph unicode=":" horiz-adv-x="528" d="M156 86q0 48 33.5 81.5t82.5 33.5q47 0 81 -34t34 -81q0 -49 -33.5 -83t-81.5 -34q-49 0 -82.5 33.5t-33.5 83.5zM156 676q0 48 33.5 81.5t82.5 33.5q47 0 81 -34t34 -81q0 -49 -33.5 -83t-81.5 -34q-49 0 -82.5 33.5t-33.5 83.5z" />
<glyph unicode=";" horiz-adv-x="528" d="M47 -246q135 129 135 226q0 52 -16 71t-43 19q-6 49 26.5 86t77.5 37q58 0 87.5 -34.5t29.5 -97.5q0 -80 -68.5 -178t-191.5 -178zM123 670q0 44 32 76t78 32q44 0 76.5 -32t32.5 -76q0 -46 -32.5 -78.5t-76.5 -32.5q-46 0 -78 32.5t-32 78.5z" />
<glyph unicode="&#x3c;" horiz-adv-x="755" d="M80 506q29 -27 45 -45l272 -322q36 -43 104 -65.5t128 -22.5h30q-21 9 -43 27.5t-34 32.5l-11 14l-231 313q-14 16 -32 33t-29 26l-11 9q43 28 68 63l227 303q55 70 96 84h-30q-59 0 -130 -23.5t-110 -66.5l-268 -319z" />
<glyph unicode="=" horiz-adv-x="983" d="M113 293v131q0 -8 467 -8q218 0 258 7q19 4 26 9q-6 -34 -19.5 -59t-37.5 -39.5t-44.5 -23.5t-58.5 -12.5t-59 -4t-64 -0.5h-20q-27 0 -212.5 1t-198.5 1q-29 0 -37 -2zM113 600v131q0 -8 467 -8q218 0 258 7q18 4 26 9q-6 -34 -19.5 -59t-37.5 -39.5t-44.5 -23.5 t-58.5 -12.5t-59 -4t-64 -0.5h-20q-27 0 -212.5 1t-198.5 1q-29 0 -37 -2z" />
<glyph unicode="&#x3e;" horiz-adv-x="755" d="M82 51q21 9 43 27.5t33 32.5l12 14l231 313q14 16 32 33t29 26l11 9q-42 28 -67 63l-228 303q-55 70 -96 84h31q59 0 129.5 -23.5t109.5 -66.5l271 -319l39 -41q-30 -27 -46 -45l-272 -322q-36 -43 -103.5 -65.5t-127.5 -22.5h-31z" />
<glyph unicode="?" horiz-adv-x="753" d="M92 1012q0 64 42 110.5t102.5 67t130.5 20.5q62 0 120 -18t104 -52t73.5 -88t27.5 -120q0 -63 -36.5 -124t-88.5 -110.5t-104 -97.5t-88.5 -101.5t-36.5 -105.5q0 -44 37 -74l-47 -22q-125 52 -125 149q0 78 33.5 148.5t80.5 120t94.5 92.5t81 84.5t33.5 77.5 q0 70 -41.5 109.5t-107.5 39.5q-47 0 -79 -28t-32 -82q0 -24 8 -45q-29 -39 -84 -39q-49 0 -73.5 27.5t-24.5 60.5zM217 84q0 44 32.5 76.5t78.5 32.5q44 0 76 -32.5t32 -76.5q0 -46 -32 -78.5t-76 -32.5q-46 0 -78.5 32.5t-32.5 78.5z" />
<glyph unicode="@" horiz-adv-x="1847" d="M111 406q0 191 70 365t187.5 300.5t280.5 201.5t342 75q204 0 370.5 -92.5t262.5 -257t96 -367.5q0 -130 -38 -254.5t-103 -220t-158 -153.5t-196 -58q-90 0 -141 55.5t-42 173.5q-49 -98 -123.5 -147.5t-148.5 -49.5q-122 0 -211.5 121.5t-89.5 282.5q0 140 47 263 t127 208.5t187.5 134.5t226.5 49q93 0 188 -30q-10 -81 -15 -181.5t-7.5 -266t-3.5 -210.5v-30q0 -43 0.5 -64.5t3 -55.5t8.5 -51t17 -36t28.5 -27t42.5 -8q67 0 130 67t103.5 184t40.5 251q0 175 -86.5 324t-236.5 236t-328 87q-194 0 -350 -100t-244 -276.5t-88 -393.5 q0 -287 148 -483.5t389 -239.5q14 -4 49 -4q60 0 78 12q-33 -121 -189 -121q-126 0 -243 67.5t-199.5 177t-132 252.5t-49.5 290zM653 416q0 -117 64.5 -204t150.5 -87q92 0 162 94l27 727q-137 0 -240 -85q-164 -137 -164 -445z" />
<glyph unicode="A" horiz-adv-x="1208" d="M10 0l465 1221q12 40 31 69.5t37.5 45.5t45 27.5t44.5 15.5t45 8.5t39 7.5q12 -59 49 -174l360 -1057q24 -89 72 -164h-248q-5 46 -14 70l-137 401h-475l-156 -444q-2 -7 -3.5 -16t-2.5 -11h-152zM358 569h406l-199 584z" />
<glyph unicode="B" horiz-adv-x="1138" d="M174 1313l14 35l363 10h21q85 0 154 -22q78 -24 124.5 -67t71 -95.5t24.5 -108.5q0 -91 -52.5 -165.5t-145.5 -129.5q129 -38 208.5 -124t79.5 -232q0 -189 -132 -301.5t-355 -112.5h-324l2 139v946q0 26 -1 49t-3.5 41.5t-4 32.5t-6.5 28t-6.5 20.5t-8 18t-7.5 14 t-8 13.5zM432 702q-1 -134 -1 -245q0 -223 5 -359h131q143 0 215 72.5t72 175.5q0 166 -93.5 256t-242.5 96zM434 797h109q61 0 137 -13q92 88 92 224q0 111 -66 175q-64 62 -157 62h-6l-101 -2q0 -131 -2 -219q-6 -222 -6 -227z" />
<glyph unicode="C" horiz-adv-x="1247" d="M106 645q0 211 81.5 376.5t231 258t343.5 92.5q131 0 248 -50.5t151 -119.5q0 -36 -40 -100.5t-89 -85.5l-33 26q0 22 -15.5 55t-45 68t-83 59.5t-118.5 24.5q-82 0 -150.5 -28t-115 -76.5t-78.5 -115t-46.5 -140.5t-14.5 -156q0 -97 18 -187t55 -169t90.5 -137.5 t129.5 -92.5t166 -34q100 0 207 52t159 146q8 -16 8 -43q0 -87 -63 -155t-168.5 -104t-233.5 -36q-141 0 -254.5 51.5t-187.5 142t-113 212.5t-39 266z" />
<glyph unicode="D" horiz-adv-x="1386" d="M174 1313l14 35l463 10h15q90 0 174 -22q91 -24 171.5 -77t140 -128t94 -182t34.5 -234q0 -150 -44.5 -281.5t-124 -227.5t-196.5 -151t-256 -55h-434q2 35 2 96v43v930q0 54 -2 88.5t-14.5 80.5t-36.5 75zM432 508q0 -230 6 -399h246q68 0 134.5 36t119 99.5t85.5 158.5 t34 205v10q-1 170 -65 314q-66 148 -182 232q-109 79 -238 79h-15l-115 -4q0 -8 -5 -290.5t-5 -440.5z" />
<glyph unicode="E" horiz-adv-x="1024" d="M174 1313l14 35h308l350 6q24 -24 34 -76q8 -40 8 -75q0 -11 -1 -21q-3 -44 -15 -56h-38q-9 46 -69.5 78t-146.5 35l-174 6q-14 -243 -14 -499h322q28 0 47 6t23 13l5 7q4 -16 4 -41q0 -24 -7 -42.5t-16 -30t-27 -20t-30.5 -12.5t-36 -6t-34 -2h-33.5q-2 0 -50.5 1 t-90.5 2q-21 0 -40.5 0.5t-37.5 -0.5v-84q0 -174 6 -396q0 -4 4 -12h389q28 0 47 6.5t24 13.5l5 7q4 -16 4 -41q0 -28 -8 -48.5t-24.5 -32.5t-32 -19.5t-40.5 -10.5t-39.5 -3.5t-39.5 -0.5h-498l2 139v946q0 26 -1 49t-3.5 41.5t-4 32.5t-6.5 28t-6.5 20.5t-8 18t-7.5 14 t-8 13.5z" />
<glyph unicode="F" horiz-adv-x="972" d="M174 1313l14 35h310l350 6q24 -24 34 -76q8 -40 8 -75q0 -11 -1 -21q-3 -44 -15 -56h-38q-9 46 -69 78t-146 35l-177 6q-14 -243 -14 -499h322q28 0 47 6t23 13l5 7q4 -16 4 -41q0 -24 -7 -42.5t-16 -30t-27 -20t-30.5 -12.5t-36 -6t-34 -2h-33.5q-2 0 -50.5 1t-90.5 2 q-21 0 -40.5 0.5t-37.5 -0.5v-84q0 -174 6 -396q0 -81 17 -141h-226l2 139v946q0 26 -1 49t-3.5 41.5t-4 32.5t-6.5 28t-6.5 20.5t-8 18t-7.5 14t-8 13.5z" />
<glyph unicode="G" horiz-adv-x="1323" d="M106 645q0 211 81.5 376.5t231 258t343.5 92.5h2q131 0 248 -50.5t151 -119.5q0 -36 -40 -100.5t-89 -85.5l-33 26q0 17 -9 42t-30 54t-50.5 53.5t-75.5 41t-99 16.5q-174 0 -285.5 -129t-117.5 -370q0 -125 26 -232t69.5 -182.5t101.5 -129t123 -79t132 -25.5 q30 0 77.5 8t79.5 16l32 7v158q0 30 -1.5 55.5t-3 43t-6 35t-7 26.5t-9 21.5t-8.5 16t-9.5 15t-8.5 12.5l14 35q63 27 141 27q63 0 117 -25q-11 -232 -14 -324l2 -186q-33 -4 -58 -10l-32.5 -6.5t-40.5 -8.5t-43 -8.5t-50.5 -9t-52 -8.5t-58 -7.5t-57 -5.5t-61 -4.5 t-59.5 -1.5q-110 0 -211 46t-180 130t-126 213t-47 283z" />
<glyph unicode="H" horiz-adv-x="1546" d="M174 1313l14 35q64 26 142 26q64 0 116 -24q-15 -329 -20 -615h690q2 152 2 352q0 30 -1.5 55.5t-3 43t-6.5 35.5t-6.5 26.5t-8.5 22t-8.5 16t-9.5 14.5l-9 13l14 35q62 26 140 26q63 0 117 -24q-20 -458 -19 -809q0 -494 22 -541h-219q-6 35 -6 119q0 1 0.5 79t1 200 t0.5 231h-690v-88q0 -492 23 -541h-226q4 136 4 1087q0 30 -1.5 55.5t-3 43t-6.5 35.5t-6.5 26.5t-8.5 22t-8.5 16t-10.5 14.5z" />
<glyph unicode="I" horiz-adv-x="653" d="M174 1315l14 35q64 26 142 26q64 0 116 -24q-20 -458 -20 -811q0 -492 23 -541h-226q4 136 4 1090q0 30 -1.5 55.5t-3 43t-6 35t-7 26.5t-9 21.5t-8.5 16t-9.5 15t-8.5 12.5z" />
<glyph unicode="J" horiz-adv-x="643" d="M-231 -252q0 38 25.5 63t72.5 25q21 0 45 -6q11 -84 106 -84q116 0 162.5 92t46.5 289q0 881 -4 963q0 30 -1.5 55.5t-3 43t-6 35t-7 26.5t-9 21.5t-8.5 16t-9.5 15t-8.5 12.5l14 35q64 26 142 26q64 0 116 -24q-20 -458 -20 -811q0 -57 1 -212.5t1 -207.5 q-1 -99 -30 -183.5t-77.5 -143.5t-111.5 -100.5t-131 -61t-137 -19.5q-78 0 -123 41.5t-45 93.5z" />
<glyph unicode="K" horiz-adv-x="1189" d="M174 1315l14 35q64 26 142 26q64 0 116 -24q-15 -338 -20 -639l424 467q45 48 45 96q0 19 -10 39l14 35q56 22 139 22q92 0 115 -20q-15 -28 -27.5 -47.5t-25 -38.5t-35.5 -45t-42.5 -47.5t-64 -67.5t-82.5 -84t-116 -117t-146 -149q38 -50 200.5 -269t263.5 -351 t112 -136h-285q-96 153 -221 333.5t-211 278.5l-47 58v-129q0 -492 23 -541h-226q4 136 4 1090q0 30 -1.5 55.5t-3 43t-6 35t-7 26.5t-9 21.5t-8.5 16t-9.5 15t-8.5 12.5z" />
<glyph unicode="L" horiz-adv-x="964" d="M174 1315l14 35q64 26 142 26q64 0 116 -24q-20 -458 -20 -811q0 -315 6 -428h236q89 0 147.5 30.5t67.5 77.5h39q15 -18 15 -68q1 -17 -1 -39q-8 -82 -39 -114h-674q4 136 4 1090q0 30 -1.5 55.5t-3 43t-6 35t-7 26.5t-9 21.5t-8.5 16t-9.5 15t-8.5 12.5z" />
<glyph unicode="M" horiz-adv-x="1843" d="M199 1315l14 35q76 26 141 26q86 0 129 -30q36 -143 201.5 -554.5t249.5 -590.5q419 1072 420 1075q5 12 12.5 21.5t15 17t21 13.5t23 10.5t28 8.5t30 6t34 4.5t34 3.5t38 3.5t38.5 3.5q-3 -48 -3.5 -83t-0.5 -103t-2 -150q-2 -94 -2 -203q0 -297 14 -708q4 -76 15 -121 h-226l2 123q2 55 2 152q-1 47 -1 107q-2 176 -2 224.5t-3.5 191t-3.5 158.5q0 19 -2 66t-2 57l-43 -133l-350 -815l-55 -174l-86 18q-46 8 -80.5 39.5t-48 59t-21.5 57.5l-338 830q-16 43 -35 118q4 -58 4 -135q-13 -811 -14 -838q0 -73 8 -106h-149l4 33q17 308 30 679 t15 525q-36 65 -55 78z" />
<glyph unicode="N" horiz-adv-x="1548" d="M182 1315l15 35q59 23 97 23q14 0 25 -3q35 -42 66 -78t82.5 -94.5t228.5 -261t430 -494.5q19 -21 38 -53.5t28 -54.5l10 -23q-14 86 -14 129q4 10 4 654q0 159 -53 221l14 35q34 24 102 24q65 0 93 -22q-25 -567 -25 -961q0 -231 10 -391h-112l-779 891q-70 90 -84 127 q7 -40 7 -90t-2.5 -151t-2.5 -152q0 -456 21 -625h-148v33q3 399 3 731v330q0 84 -11 131.5t-43 89.5z" />
<glyph unicode="O" horiz-adv-x="1392" d="M100 651q0 -129 29.5 -240.5t80 -190.5t117.5 -135.5t141.5 -84t152.5 -27.5q149 0 273.5 56t209 153.5t132 230t50.5 285.5q0 161 -43 291t-118 212.5t-173 126.5t-211 44q-137 0 -255.5 -53.5t-203.5 -147.5t-133.5 -228.5t-48.5 -291.5zM322 717q0 144 45 265t125 192 t178 71q104 0 194.5 -82.5t144.5 -225t54 -308.5q0 -145 -44.5 -267t-124 -194t-175.5 -72q-108 0 -200.5 89t-144.5 231.5t-52 300.5z" />
<glyph unicode="P" horiz-adv-x="1132" d="M172 1313l14 35l369 12h23q66 0 126 -11t121 -40.5t105 -75t72 -120.5t28 -171q0 -123 -66.5 -222t-178.5 -153.5t-246 -54.5q-53 0 -109 12q9 -442 19 -524h-224v33q-1 63 1 243q1 108 1 183v86q0 57 1 145t1 144t-0.5 128.5t-4 120.5t-9.5 96.5t-17 81.5t-26 52z M430 633q39 -19 129 -19q122 0 205.5 78t83.5 205q0 93 -28.5 164t-74 110t-96.5 57q-46 17 -92 17h-10l-111 -4q-6 -74 -6 -547v-61z" />
<glyph unicode="Q" horiz-adv-x="1398" d="M100 651q0 -129 29.5 -240.5t80 -190.5t117.5 -135.5t141.5 -84t152.5 -27.5q3 0 9 1t9 1q21 -164 135 -263t258 -99q98 0 157 31.5t111 103.5q-16 -4 -38 -4q-106 0 -201.5 24.5t-176.5 81.5t-116 140q234 49 373 243t145 465q0 161 -43 291t-118 212.5t-173 126.5 t-211 44q-137 0 -255.5 -53.5t-203.5 -147.5t-133.5 -228.5t-48.5 -291.5zM322 717q0 144 45 265t125 192t178 71q104 0 194.5 -82.5t144.5 -225t54 -308.5q0 -145 -44.5 -267t-124 -194t-175.5 -72q-108 0 -200.5 89t-144.5 231.5t-52 300.5z" />
<glyph unicode="R" horiz-adv-x="1218" d="M172 1313l14 35q377 10 392 10q66 0 126 -11t121 -40t105 -74t72 -120t28 -171q0 -134 -77 -238.5t-205 -152.5q26 -13 235.5 -272t235.5 -279h-277q-12 24 -28 51t-38.5 58t-41 56.5t-48.5 62t-48.5 58.5t-53.5 62t-49 56.5t-51 57.5t-45 50q-53 0 -109 12 q9 -442 19 -524h-224v33q-1 63 1 243q1 108 1 183v86q0 57 1 145t1 144t-0.5 128.5t-4 120.5t-9.5 96.5t-17 81.5t-26 52zM430 633q39 -19 129 -19q122 0 205.5 78t83.5 205q0 94 -28.5 165.5t-74.5 110t-96 56.5q-45 16 -92 16h-10l-111 -4q-6 -74 -6 -547v-61z" />
<glyph unicode="S" horiz-adv-x="983" d="M113 180q0 32 22 68q12 -45 110.5 -88t194.5 -43q49 0 91.5 9t81 29.5t61 58.5t22.5 91q0 55 -32 105t-82.5 90t-112 79.5t-123.5 83.5t-112.5 92.5t-82.5 114.5t-32 142q0 68 24.5 132.5t70.5 117t120 84.5t164 32q77 0 147.5 -18t101 -33.5t72.5 -40.5q8 -28 9 -68v-7 q0 -37 -10 -79q-10 -46 -34 -69l-39 8q-17 51 -50.5 91t-73 62t-77 33t-69.5 11q-77 0 -138 -45.5t-61 -128.5q0 -54 34 -102.5t88 -87.5t119.5 -79t131.5 -85t120 -96.5t88 -123t34 -155.5q0 -164 -124 -278t-318 -114q-133 0 -234.5 63.5t-101.5 143.5z" />
<glyph unicode="T" horiz-adv-x="1107" d="M22 1178q4 -40 13 -52h39q6 47 66 78t149 31h157q9 -55 9 -156q2 -258 2 -519.5t-2 -526.5v-33h223q-12 75 -12 90q-2 80 -2 224t1 297t2 290.5t2 234t1 99.5h157q89 0 149 -31t66 -78h39q9 12 13 52q1 13 2 27q0 31 -7 68q-10 54 -40 87l-283 -12h-416l-282 12 q-30 -33 -40 -87q-7 -38 -8 -69q1 -14 2 -26z" />
<glyph unicode="U" horiz-adv-x="1445" d="M168 1315l14 35q64 26 142 26q64 0 116 -24q-10 -254 -10 -897q0 -86 21.5 -151t53.5 -101t76.5 -58.5t82 -29t79.5 -6.5q150 0 251.5 79.5t109.5 194.5q8 67 8 711q0 159 -53 221l14 35q34 24 103 24q64 0 92 -22q-21 -476 -21 -908q0 -205 -139.5 -339t-382.5 -134 q-112 0 -195.5 21t-152 71t-105.5 141.5t-41 223.5q-10 390 -10 662q0 30 -1.5 55.5t-3 43t-6 35t-7 26.5t-9 21.5t-8.5 16t-9.5 15t-8.5 12.5z" />
<glyph unicode="V" horiz-adv-x="1280" d="M31 1313q5 -2 13 -9t23 -28t31.5 -52t38.5 -85t43 -121l318 -887q8 -30 21.5 -58t47.5 -58.5t80 -39.5l86 -18l55 174l398 944q25 58 48 137.5t26 135.5q-41 28 -107 28q-68 0 -125 -26l-14 -35q43 -46 43 -115q0 -58 -31 -135l-278 -713q-12 -30 -23.5 -68t-16.5 -60 l-6 -23q-68 153 -214 570t-179 568q-37 37 -123 37q-79 0 -141 -28z" />
<glyph unicode="W" horiz-adv-x="1900" d="M31 1313q5 -2 13 -9t23 -28t31.5 -52t38.5 -85t43 -121l287 -887q8 -30 21.5 -58t47.5 -58.5t80 -39.5l86 -18l56 174l209 561l182 -561q8 -30 21.5 -58t47.5 -58.5t80 -39.5l86 -18l56 174l360 944q23 57 46 137t28 136q-45 20 -119 20q-72 0 -113 -20l-14 -35 q43 -46 43 -115q0 -56 -31 -133l-241 -713q-12 -30 -22.5 -68t-15.5 -60l-5 -23q-61 136 -191.5 553.5t-167.5 584.5q-37 37 -125 37q-83 0 -145 -28l-14 -35q5 -2 13 -9t23 -28t31.5 -52t38.5 -85t43 -121l39 -121l-184 -545q-12 -30 -23 -68t-16 -60l-4 -23 q-61 136 -191.5 553.5t-167.5 584.5q-37 37 -125 37q-83 0 -145 -28z" />
<glyph unicode="X" horiz-adv-x="1079" d="M33 0l71 100l355 559l-195 361q-15 28 -35.5 66.5t-29.5 55.5t-23.5 43t-21 36t-17 26t-17 22.5t-16.5 16t-19.5 15t-21.5 12.5l15 35q61 28 141 28q86 0 123 -37q10 -21 29.5 -65t30.5 -67.5t37 -75t66 -124t99 -178.5q20 41 43 78l107 174q1 2 8 13t9 14.5t8.5 14.5 t9 16.5t8 16t8 17.5t6.5 17t5.5 17.5t3 16.5t1.5 17q0 47 -22 72l14 35q48 28 115 28q71 0 116 -28q-18 -103 -137 -281l-239 -354l325 -592q17 -31 41.5 -61.5t39.5 -45.5l16 -14h-273l-289 537q-39 -72 -59 -103l-209 -323q-14 -25 -25 -53t-15 -43l-5 -15h-182z" />
<glyph unicode="Y" horiz-adv-x="1064" d="M10 1313l15 35q61 28 143 28q87 0 121 -37q46 -114 144.5 -304t152.5 -277q12 37 35 76l170 301q28 49 28 94q0 44 -26 84l14 35q61 28 115 28q50 0 108 -28q0 -35 -40 -128t-79 -153l-252 -405q0 -36 -1 -142t-1 -168q0 -239 17 -352h-223v33q0 84 1 200.5t1 149.5 q0 198 -2 233q-15 15 -43 64l-197 344q-27 47 -58 105t-43 79.5t-30 48t-33 37t-37 19.5z" />
<glyph unicode="Z" horiz-adv-x="1159" d="M31 41q41 45 53 63l680 1057l61 70h-194h-269q-89 0 -149 -31t-65 -78h-39q-9 12 -13 54q-1 13 -2 28q0 32 7 71q10 56 40 89l283 -12h678l6 -43q-39 -46 -51 -66l-672 -1044l-57 -66h235h281q89 0 149 31t66 78h39q9 -12 13 -54q1 -13 2 -27q1 -33 -7 -72 q-10 -56 -41 -89h-283h-745z" />
<glyph unicode="[" horiz-adv-x="507" d="M57 -141v1624h338v-99h-190v-1427h190v-98h-338z" />
<glyph unicode="\" horiz-adv-x="729" d="M10 1337q0 -24 9 -56.5t22.5 -69t15.5 -42.5q472 -1437 527 -1669h161q-246 727 -398 1242t-152 599q-9 14 -55.5 32t-86.5 18q-43 0 -43 -54z" />
<glyph unicode="]" horiz-adv-x="509" d="M135 -201h191v1581h-191v119h318v-1818h-318v118z" />
<glyph unicode="^" horiz-adv-x="1277" d="M145 655q103 180 211.5 379t165.5 308l58 108h114q405 -746 434 -795h-143q-98 180 -185 337.5t-125 224.5l-38 67q-127 -233 -348 -629h-144z" />
<glyph unicode="_" horiz-adv-x="921" d="M0 -154h983l-61 -122h-922v122z" />
<glyph unicode="`" horiz-adv-x="692" d="M127 1524l80 -140q108 -186 276 -186q16 0 34.5 7t30 15t11.5 11q-52 16 -91 52.5t-61 76.5t-42.5 77.5t-48.5 62t-66 24.5h-123z" />
<glyph unicode="a" horiz-adv-x="1067" d="M8 0l402 977q13 38 34.5 64t50.5 39t51.5 19t54.5 10.5t42 6.5q11 -47 43 -139l311 -846q20 -66 62 -131h-225q-5 35 -13 55l-116 316h-414l-133 -351q-2 -4 -3.5 -11t-2.5 -9h-144zM322 461h350l-172 461z" />
<glyph unicode="b" horiz-adv-x="1019" d="M137 1057l13 26l325 9h21q71 0 131 -18q68 -20 110 -55.5t64 -78.5t22 -88q0 -133 -178 -229q112 -31 184 -103t72 -188q0 -152 -116.5 -242t-309.5 -90h-293l2 111v757q0 59 -9 101t-15.5 53.5t-22.5 34.5zM373 555q-1 -92 -1 -170q0 -183 5 -295h112q124 0 183 55.5 t59 137.5q0 133 -76.5 199t-205.5 71zM375 643h94q68 0 119 -10q74 70 74 174q0 88 -54 136q-51 46 -132 46h-7h-86q0 -100 -2 -170q-1 -20 -2.5 -54.5t-2.5 -64t-1 -57.5z" />
<glyph unicode="c" horiz-adv-x="1107" d="M113 516q0 169 70 302.5t199.5 209.5t295.5 76q115 0 215 -39.5t131 -95.5q0 -30 -35 -87.5t-78 -74.5l-26 20q0 18 -13.5 44.5t-39 54.5t-72 47.5t-103.5 19.5q-84 0 -150 -33.5t-106 -90.5t-61 -129t-21 -154q0 -131 42 -240t131.5 -179.5t212.5 -70.5q88 0 179.5 39.5 t135.5 114.5q8 -13 8 -35q0 -105 -117 -173.5t-286 -68.5q-122 0 -220 42t-161 115.5t-97 172t-34 213.5z" />
<glyph unicode="d" horiz-adv-x="1230" d="M160 1057l12 26l401 9h16q77 0 147 -18q78 -20 147.5 -61t121 -101.5t81.5 -146.5t30 -187q0 -161 -65 -292t-188.5 -208.5t-282.5 -77.5h-375q2 29 2 78v33v745q0 148 -47 201zM395 406q0 -173 6 -308h201q122 0 214 110t95 286v10q-1 136 -51 246q-52 114 -148 179 q-90 60 -200 60h-14l-92 -4q0 -7 -5.5 -230t-5.5 -349z" />
<glyph unicode="e" horiz-adv-x="913" d="M162 1057l12 26h266l303 7q20 -20 29 -64q7 -35 7 -66q-1 -9 -1 -17q-2 -39 -12 -48h-33q-9 37 -61 62t-125 28l-139 4q-13 -266 -13 -387h267q24 0 40.5 6t20.5 12l4 5q4 -21 4 -39q0 -26 -11.5 -45t-27 -29t-39.5 -15.5t-41.5 -6.5t-40.5 -1q-1 0 -25 0.5t-50 0.5h-56 t-45 -1q-1 -56 -1 -111q0 -129 5 -253q0 -2 4 -10h324q24 0 40.5 5.5t20.5 11.5l5 5q4 -21 4 -39q0 -32 -15.5 -53.5t-43 -30.5t-49.5 -11.5t-52 -2.5h-430l2 111v763q0 24 -1.5 44t-3 34.5t-5.5 28.5t-6 21.5t-7.5 18t-7.5 13.5t-8.5 12.5t-7.5 10.5z" />
<glyph unicode="f" horiz-adv-x="862" d="M164 1057l12 26h268l304 7q19 -19 28 -64q6 -34 6 -65v-18q-3 -39 -12 -48h-33q-9 37 -61 62t-125 28l-141 4q-13 -266 -13 -387h267q24 0 40.5 6t20.5 12l4 5q4 -21 4 -39q0 -26 -11.5 -45t-27 -29t-39.5 -15.5t-41.5 -6.5t-40.5 -1h-176q-1 -59 -1 -116q0 -133 5 -260 q0 -64 15 -113h-207l2 111v763q0 24 -1.5 44t-3 34.5t-5.5 28.5t-6 21.5t-7.5 18t-7.5 13.5t-8.5 12.5t-7.5 10.5z" />
<glyph unicode="g" horiz-adv-x="1200" d="M113 516q0 169 70 302.5t199.5 209.5t295.5 76h2q115 0 215 -39.5t131 -95.5q0 -30 -35 -87.5t-78 -74.5l-28 20q0 18 -13 44.5t-38.5 54.5t-72.5 47.5t-104 19.5q-142 0 -236.5 -101.5t-98.5 -291.5q0 -124 33.5 -224.5t88.5 -161.5t121 -93.5t135 -32.5q25 0 65.5 6 t68.5 12l28 7v120q0 31 -2.5 56.5t-5 40.5t-9 31.5t-8.5 21t-10.5 17.5t-9.5 14l12 26q55 23 121 23q51 0 103 -21q-12 -189 -13 -258l2 -155q-28 -5 -51 -9q-255 -47 -391 -47q-95 0 -182.5 37.5t-155.5 105.5t-108.5 172t-40.5 228z" />
<glyph unicode="h" horiz-adv-x="1382" d="M174 1057l12 26q61 23 129 23q57 0 107 -21q-14 -336 -16 -487h583q2 121 2 279q0 27 -1.5 48.5t-5 38.5t-5.5 28t-8 23t-8.5 16t-10 14t-8.5 12l12 26q59 23 127 23q57 0 109 -21q-16 -364 -16 -653q0 -397 18 -432h-201q-6 29 -6 94q0 2 0.5 64t1 159.5t0.5 184.5h-583 v-70q0 -393 18 -432h-207q4 106 4 877q0 27 -1.5 48.5t-5 38.5t-5.5 28t-8 23t-8.5 16t-10 14t-8.5 12z" />
<glyph unicode="i" horiz-adv-x="626" d="M170 1059l12 26q61 23 129 23q57 0 107 -21q-17 -391 -17 -655q0 -390 19 -432h-207q4 106 4 879q0 27 -1.5 48.5t-5 38.5t-5.5 28t-8 23t-8.5 16t-10 14t-8.5 12z" />
<glyph unicode="j" horiz-adv-x="647" d="M-143 -201q0 31 23 56.5t63 25.5q11 0 39 -4q7 -67 92 -67q100 0 140 68t40 224q0 711 -4 777q0 31 -2.5 56.5t-5 40.5t-8.5 31t-9 21t-11 17t-9 14l12 26q59 23 125 23q58 0 111 -21q-19 -350 -19 -655q0 -46 1 -170t1 -166q-1 -98 -40 -177.5t-102 -127.5t-137 -74 t-149 -26q-67 0 -109 33.5t-42 74.5z" />
<glyph unicode="k" horiz-adv-x="1073" d="M172 1057l12 26q61 23 129 23q57 0 107 -21q-16 -380 -17 -516l369 379q39 39 39 76q0 16 -10 33l12 26q50 19 121 19q90 0 110 -17q-43 -73 -92.5 -125t-259.5 -249q-72 -67 -114 -107q45 -54 177 -218t221.5 -273t98.5 -113h-258q-80 118 -189 263.5t-184 225.5l-41 48 v-105q0 -390 19 -432h-207q4 106 4 877q0 27 -1.5 48.5t-5 38.5t-5.5 28t-8 23t-8.5 16t-10 14t-8.5 12z" />
<glyph unicode="l" horiz-adv-x="870" d="M172 1057l12 26q61 23 129 23q57 0 107 -21q-17 -391 -17 -653q0 -218 5 -330h192q76 0 126 24t58 62h35q14 -14 14 -58q1 -15 -1 -33q-6 -72 -35 -97h-582q4 106 4 877q0 27 -1.5 48.5t-5 38.5t-5.5 28t-8 23t-8.5 16t-10 14t-8.5 12z" />
<glyph unicode="m" horiz-adv-x="1677" d="M195 1057l12 26q71 23 133 23q86 0 125 -25q31 -118 171.5 -453.5t207.5 -467.5q92 219 161 385t103.5 251.5t53.5 135t26.5 70.5t7.5 22q12 27 53.5 43t75.5 20t106 9q6 1 9.5 1t8.5 0.5t9 0.5q-3 -38 -3.5 -66t-0.5 -82.5t-2 -120.5q-1 -60 -1 -130q0 -244 11 -603 q4 -59 15 -96h-209l2 98q2 77 2 172q0 208 -8 500q0 15 -2 52.5t-2 45.5l-37 -106l-293 -658l-47 -139l-99 15q-40 7 -70 32t-41 47t-18 45l-282 668q-20 51 -31 96q4 -50 4 -108q-1 -47 -4.5 -314.5t-7.5 -359.5q0 -56 6 -86h-141l4 27q34 611 39 966q-24 41 -47 64z" />
<glyph unicode="n" horiz-adv-x="1406" d="M174 1057l12 26q57 21 98 21q18 0 33 -4q12 -14 50 -57t78 -87.5t184 -199.5t375 -402q16 -17 32.5 -43t24.5 -43l8 -18q-12 67 -12 102q4 12 4 527q0 128 -47 178l12 26q32 21 96 21q61 0 86 -19q-22 -398 -22 -772q0 -157 8 -313h-121l-661 717q-62 71 -74 102 q6 -27 6 -74q0 -40 -2 -122t-2 -123q0 -369 18 -500h-141v27q2 213 2 583v269q0 68 -9 106t-36 72z" />
<glyph unicode="o" horiz-adv-x="1249" d="M106 520q0 -128 40 -234t106 -173t146.5 -103.5t164.5 -36.5q128 0 237 46t183 125t116.5 186t45.5 229q0 129 -38.5 234t-104.5 172t-151.5 103t-182.5 36q-158 0 -286.5 -74.5t-202 -208.5t-73.5 -301zM311 573q0 176 83.5 296t211.5 120q90 0 166 -64.5t121 -176 t45 -244.5q0 -179 -82.5 -299.5t-208.5 -120.5q-94 0 -172 69t-121 181t-43 239z" />
<glyph unicode="p" horiz-adv-x="1005" d="M156 1057l12 26l330 11h20q56 0 108.5 -9.5t105 -34t91 -61.5t62.5 -97.5t24 -137.5q0 -149 -124.5 -250t-301.5 -101q-33 0 -94 11q8 -339 17 -414h-205v27q0 49 1 193q1 86 1 147v69q0 45 1 158q1 76 1 123q0 24 -1 41q0 49 -4 123t-15 114.5t-29 61.5zM389 512 q38 -14 113 -14q104 0 170.5 58.5t66.5 160.5q0 75 -22.5 131t-60 85.5t-78.5 43.5q-37 12 -75 12h-11l-97 -2q-6 -59 -6 -426v-49z" />
<glyph unicode="q" horiz-adv-x="1247" d="M106 520q0 -128 40 -234t106 -173t146.5 -103.5t164.5 -36.5h17q18 -130 116 -209t222 -79q83 0 134.5 29.5t98.5 90.5q-16 -4 -35 -4q-68 0 -131 9.5t-122 30.5t-104.5 58t-68.5 87q203 39 326 197.5t129 375.5q0 129 -38.5 234t-104.5 172t-151.5 103t-182.5 36 q-158 0 -286.5 -74.5t-202 -208.5t-73.5 -301zM311 573q0 176 83.5 296t211.5 120q90 0 166 -64.5t121 -176t45 -244.5q0 -179 -82.5 -299.5t-208.5 -120.5q-94 0 -172 69t-121 181t-43 239z" />
<glyph unicode="r" horiz-adv-x="1095" d="M152 1057l12 26q230 6 333 9h17q57 0 109.5 -9.5t106 -33.5t93 -61t64 -97t24.5 -137q0 -108 -67.5 -194t-177.5 -120q23 -10 204 -217.5t203 -222.5h-252q-27 52 -91.5 130.5t-106.5 123t-128 133.5q-15 16 -22 23q-33 0 -88 10q9 -357 16 -420h-204v27q-1 49 1 193 q1 86 1 147v69q0 44 1 158q1 76 1 123q-1 25 -1 41q0 50 -4 123.5t-15 114t-29 61.5zM385 512q38 -14 113 -14q105 0 174 59t69 160q0 76 -23.5 132.5t-62.5 85.5t-81 43q-37 12 -75 11h-12l-96 -2q-6 -59 -6 -426v-49z" />
<glyph unicode="s" horiz-adv-x="835" d="M96 809q0 116 91 205.5t243 89.5q66 0 127.5 -14.5t88 -27t63.5 -32.5q8 -17 8 -51q-1 -19 -3 -43q-6 -68 -36 -96l-35 6q-18 54 -62 92t-88 52t-83 14q-67 0 -115.5 -32t-48.5 -98q0 -43 29 -81.5t76 -69t103.5 -61t113 -66.5t103.5 -77t76 -100t29 -128 q0 -131 -110.5 -224.5t-278.5 -93.5q-114 0 -201.5 50t-87.5 114q0 39 19 68q11 -36 96 -70.5t168 -34.5q215 0 215 144q0 40 -27.5 77t-71.5 68t-97.5 62.5t-107 67.5t-97.5 76t-71.5 95.5t-27.5 118.5z" />
<glyph unicode="t" horiz-adv-x="958" d="M20 940q4 -35 11 -45h32q6 37 58 61.5t129 24.5h129q8 -39 8 -123q2 -203 2 -410.5t-2 -420.5v-27h205q-10 50 -10 72q-2 64 -2 178.5t1 236t2 230.5t2 185.5t1 78.5h129q77 0 128.5 -24.5t57.5 -61.5h33q7 10 11 45q1 11 1 23q0 27 -6 59q-9 46 -35 72l-243 -11h-359 l-244 11q-27 -26 -35 -72q-6 -32 -5 -58q0 -13 1 -24z" />
<glyph unicode="u" horiz-adv-x="1271" d="M154 1057l12 26q55 23 123 23q59 0 112 -21q-10 -203 -10 -720q0 -69 18.5 -120.5t45 -79t65 -44t69.5 -21t68 -4.5q129 0 213.5 59.5t92.5 151.5q6 57 6 572q0 127 -45 178l12 26q28 21 94 21q61 0 86 -19q-18 -391 -18 -729q0 -165 -123 -274t-334 -109 q-77 0 -138.5 10.5t-116.5 36.5t-92 67t-60 105.5t-25 149.5q-10 312 -10 535q0 31 -2.5 56.5t-5 40.5t-8.5 31t-9 21t-11 17t-9 14z" />
<glyph unicode="v" horiz-adv-x="1122" d="M20 1057q8 -3 23 -19.5t46 -74t61 -142.5l276 -717q11 -39 41.5 -76t87.5 -48l86 -15l55 139l344 762q62 137 64 217q-39 25 -92 25q-71 0 -119 -23l-12 -26q37 -37 37 -92q0 -47 -27 -109l-244 -575q-10 -24 -18.5 -55t-11.5 -50l-3 -18q-59 125 -186 461t-156 456 q-31 31 -110 31q-73 0 -129 -25z" />
<glyph unicode="w" horiz-adv-x="1660" d="M31 1057q8 -3 23 -19.5t45.5 -74t60.5 -142.5l250 -717q11 -39 41.5 -76t87.5 -48l73 -15l50 139l180 449l157 -449q5 -17 12.5 -33.5t22 -36t39 -34t55.5 -20.5l74 -15l47 139l314 762q20 43 39.5 107t25.5 110q-42 17 -104 17t-97 -17l-12 -26q37 -37 37 -92 q0 -45 -27 -107l-211 -575q-10 -24 -19 -55t-13 -50l-4 -18q-52 110 -166 447t-146 470q-31 31 -108 31q-69 0 -125 -25l-12 -26q8 -3 23.5 -21t46.5 -77t61 -144l32 -98l-159 -434q-10 -24 -19.5 -55t-13.5 -50l-4 -18q-52 110 -166 447t-146 470q-31 31 -108 31 q-69 0 -125 -25z" />
<glyph unicode="x" horiz-adv-x="954" d="M25 0l61 80l311 452l-168 283q-20 34 -44.5 76t-34 58.5t-23.5 37.5t-22.5 29.5t-20 17.5t-27.5 17l13 26q55 25 120 25q36 0 70.5 -8.5t48.5 -22.5q8 -17 29.5 -61.5t34.5 -68.5t53.5 -94t103.5 -173q15 28 33 57l96 133q3 4 13.5 21t16 26.5t13.5 25t11.5 29.5t3.5 27 q0 39 -19 58l13 26q42 25 98 25q76 0 115 -25q-14 -80 -119 -223l-215 -285l289 -473q15 -24 36 -48t35 -36l13 -12h-254l-248 420q-25 -47 -41 -72l-180 -260q-12 -20 -22 -42t-14 -34l-3 -12h-176z" />
<glyph unicode="y" horiz-adv-x="892" d="M-8 1057l12 26q55 25 125 25q86 0 117 -31q38 -89 124 -242.5t136 -228.5q11 29 31 62l147 239q22 38 24 76v6q0 35 -20 68l12 26q55 25 101 25q54 0 106 -25q0 -28 -37 -105.5t-71 -123.5l-217 -326q0 -28 -1 -112.5t-1 -132.5q0 -195 14 -283h-217v27q0 67 1 160t1 120 q0 158 -2 187q-14 14 -37 51l-170 274q-21 35 -49.5 84.5t-39 66t-27.5 39.5t-30 32t-32 16z" />
<glyph unicode="z" horiz-adv-x="1013" d="M20 33q36 37 46 51l575 836l53 55h-155h-232q-77 0 -128.5 -25t-57.5 -63h-33q-7 10 -11 47q-1 11 -1 24q0 28 6 62q9 48 35 74l243 -11h598l5 -34q-33 -36 -43 -52l-570 -825l-49 -53h193h241q77 0 129 24.5t58 61.5h32q7 -11 11 -47q1 -12 1 -24q0 -27 -6 -60 q-8 -48 -34 -74h-244h-655z" />
<glyph unicode="{" horiz-adv-x="681" d="M37 578v45q153 0 153 579q0 86 30.5 155t78 109.5t101.5 62t106 21.5q72 0 125 -47q-119 -2 -189.5 -85.5t-70.5 -233.5q0 -140 -18 -258t-45.5 -188.5t-57 -110.5t-55.5 -43q4 -1 10 -4.5t24.5 -22t35 -46t37 -82.5t35 -125t24.5 -179.5t10 -241.5q0 -58 2.5 -94 t14 -81.5t33 -71.5t61.5 -44t98 -18q15 0 51 4q-68 -80 -174 -80q-105 0 -186 79t-81 212q0 232 -12.5 392t-35.5 241t-47.5 115t-57.5 41z" />
<glyph unicode="|" horiz-adv-x="163" d="M0 -520v2068h164v-2068h-164z" />
<glyph unicode="}" horiz-adv-x="681" d="M51 -422q68 -80 174 -80q105 0 186 79t81 212q0 232 12.5 392t35.5 241t47.5 115t57.5 41v45q-153 0 -153 579q0 86 -30.5 155t-78 109.5t-101.5 62t-106 21.5q-72 0 -125 -47q119 -2 189.5 -85.5t70.5 -233.5q0 -140 18 -258t45.5 -188.5t57 -110.5t55.5 -43 q-4 -1 -10 -4.5t-24.5 -22t-35 -46t-37 -82.5t-35 -125t-24.5 -179.5t-10 -241.5q0 -58 -2.5 -94t-14 -81.5t-33 -71.5t-61.5 -44t-98 -18q-15 0 -51 4z" />
<glyph unicode="~" horiz-adv-x="1079" d="M184 535q74 55 129 51q34 -2 125.5 -34t159.5 -36q99 -6 176 35.5t96 128.5q-83 -59 -151 -55q-36 4 -131 34t-146 33q-62 4 -114 -9.5t-92.5 -51t-51.5 -96.5z" />
<glyph horiz-adv-x="1024" />
<glyph unicode="&#xa1;" horiz-adv-x="540" d="M125 -14q0 31 16 129q20 118 23 159l45 496h76l57 -711q3 -37 12.5 -65t17.5 -38l9 -9v-39q-60 -39 -117 -39q-76 0 -107.5 29t-31.5 88zM139 997q0 46 32.5 78.5t76.5 32.5q46 0 78 -32.5t32 -78.5q0 -44 -32 -76t-78 -32q-44 0 -76.5 32t-32.5 76z" />
<glyph unicode="&#xa2;" horiz-adv-x="1003" d="M113 461q0 153 51.5 279.5t149 205.5t223.5 90q-1 36 -5.5 104t-5.5 83q45 10 58 10q14 0 24 -4t15.5 -13.5t8.5 -19.5t3.5 -26.5t0 -30t-1.5 -34.5t-1 -36v-33q135 -12 206.5 -74.5t53.5 -158.5q-33 39 -106.5 67t-155.5 31q-6 -480 -6 -637v-135q84 5 165.5 53 t133.5 127q8 -24 8 -49q0 -96 -89 -173t-216 -103l8 -207h-100q0 135 2 196h-5q-84 0 -157.5 28.5t-133 85.5t-94 153t-34.5 221zM295 528q0 -91 25.5 -171.5t81.5 -141.5t135 -80q6 610 4 762q-95 -13 -148 -72q-98 -109 -98 -297z" />
<glyph unicode="&#xa3;" horiz-adv-x="1124" d="M74 551l12 133q0 4 137 4q0 21 0.5 86t1 80.5t2 60.5t4.5 66t8 54t13 65q11 47 28.5 92t47 97.5t73 96t99.5 80t134 57.5t169 21q62 0 125 -20t110 -63.5t47 -100.5q0 -67 -37.5 -102t-82.5 -35q-47 0 -80 30q1 0 3 5.5t3.5 16t1.5 21.5q0 48 -51 89.5t-135 41.5 q-111 0 -192 -97t-93 -230q-5 -51 -8 -102.5t-4.5 -81.5t-3.5 -109t-3 -123q132 -4 154 -4q219 0 259 7q19 4 26 9q-6 -34 -19.5 -59t-37.5 -39.5t-44.5 -23.5t-58.5 -12.5t-59 -4t-64 -0.5h-20h-142q-5 -163 -46.5 -381t-84.5 -280q238 -46 404 -46q174 0 314 31.5 t196 91.5q6 -27 6 -53q0 -219 -410 -219q-48 0 -103.5 4t-131.5 14.5t-130.5 19t-164 26t-168.5 26.5q59 129 96 343.5t47 424.5h-90q-25 0 -57 -8z" />
<glyph unicode="&#xa4;" horiz-adv-x="1183" d="M25 731l24 131q0 -6 127 -6q56 236 227.5 376t413.5 140q123 0 205 -31t102.5 -84.5t-26.5 -126.5q-3 39 -90.5 79t-214.5 40q-174 0 -297 -112.5t-160 -282.5h385q219 0 259 7q19 4 26 9q-5 -29 -17.5 -51.5t-26 -37t-39 -25t-43 -15.5t-52 -7.5t-51.5 -2.5h-55h-20 h-378q0 -72 10 -164h264h1h1h1h1h1h1h1h1h1h1h1h1h1h1h1h1h1h1h1h1h2q216 0 252 12q7 2 11 5q-6 -34 -19.5 -59t-38 -40t-45 -24t-58.5 -12.5t-59.5 -4t-65.5 -0.5h-9h-8h-222q102 -354 461 -354q30 0 74.5 8.5t108.5 37.5t106 73q3 -118 -92.5 -178t-259.5 -60 q-236 0 -386.5 127t-197.5 348h-106q-29 0 -37 -2l20 131q28 -4 105 -4q-2 25 -2 74q0 59 4 88h-95q-28 0 -36 -2z" />
<glyph unicode="&#xa5;" horiz-adv-x="1064" d="M10 1313l15 35q61 28 143 28q87 0 121 -37q46 -114 144.5 -304t152.5 -277q12 37 35 76l170 301q26 45 26 94q0 43 -24 84l14 35q61 28 115 28q50 0 108 -28q1 -34 -38.5 -124t-80.5 -157l-225 -360q207 0 246 8q17 3 24 8q-5 -29 -18 -51.5t-28 -37t-42 -24.5t-46 -15 t-54 -7.5t-53.5 -3t-56.5 -0.5h-15q-12 -165 -12 -185h24q74 0 110 0.5t84.5 1.5t73 5t33.5 10q-5 -29 -19 -52t-29.5 -37.5t-43.5 -24.5t-48 -15t-56 -8t-55 -3h-57h-17q0 -170 16 -276h-198v33q0 54 1 133t1 110q-147 3 -209 3q-25 0 -37 -3v132q0 -9 246 -9v185 q-98 2 -209 2q-29 0 -37 -2v131q0 -4 186 -8l-180 317q-27 48 -57.5 105t-43 79.5t-30 48t-32.5 36.5t-38 20z" />
<glyph unicode="&#xa7;" horiz-adv-x="860" d="M102 -311l4 37q58 -52 135.5 -83t145.5 -30h19q16 160 -11 359t-131 571q-102 364 -102 571q0 175 99.5 294.5t250.5 119.5q79 0 143 -20t100 -49.5t54.5 -60t17.5 -55.5l-4 -36q-57 51 -134.5 82t-145.5 30h-21q-15 -162 13 -361.5t131 -568.5q102 -364 102 -571 q0 -175 -99.5 -294.5t-250.5 -119.5q-79 0 -143 19.5t-99.5 49.5t-54.5 60t-19 56zM281 1081q0 -77 23 -184t95 -387q28 -113 42 -171t34.5 -154t27 -157t11 -137t-4 -139t-26.5 -121q79 29 123 108.5t43 211.5q0 54 -15 136t-33 154.5t-71 280.5q-28 110 -42 170 t-34.5 154.5t-27.5 156.5t-11.5 137.5t3.5 139t26 121.5q-166 -63 -163 -320z" />
<glyph unicode="&#xa8;" horiz-adv-x="786" d="M106 1313q0 46 31 79t72 33t71.5 -33t30.5 -79q0 -47 -30 -80t-72 -33t-72.5 33t-30.5 80zM483 1313q0 46 31 79t72 33t71.5 -33t30.5 -79q0 -47 -30 -80t-72 -33t-72.5 33t-30.5 80z" />
<glyph unicode="&#xa9;" horiz-adv-x="1617" d="M113 627q0 158 54 295t150.5 235.5t236.5 154.5t306 56q186 0 333.5 -81.5t229.5 -228t82 -331.5q0 -213 -89.5 -382t-256.5 -266t-383 -97q-291 0 -477 181t-186 464zM244 672q0 -249 165 -415.5t412 -166.5q112 0 214 44.5t177.5 121.5t120.5 188t45 236 q0 255 -157.5 419.5t-403.5 164.5q-156 0 -286.5 -75.5t-208.5 -212t-78 -304.5zM473 651q0 173 100 295.5t258 122.5q122 0 193.5 -55.5t54.5 -134.5q-3 3 -8.5 8t-25.5 17.5t-44 22t-64 17.5t-85 8q-41 0 -82 -18t-68 -45q-71 -71 -71 -197q0 -104 57.5 -179t163.5 -75 q66 0 132.5 35t111.5 98q12 -37 12 -57q0 -82 -96.5 -142.5t-210.5 -60.5q-139 0 -233.5 85.5t-94.5 254.5z" />
<glyph unicode="&#xaa;" horiz-adv-x="858" />
<glyph unicode="&#xab;" horiz-adv-x="1302" d="M127 506q23 21 41 41l268 319q46 56 90 86t78.5 32.5t58.5 -5t44 -23.5q-18 -6 -42.5 -27t-39.5 -39l-15 -18l-227 -303q-11 -16 -28 -31.5t-29 -23.5l-11 -8q43 -29 68 -64l227 -303q56 -70 97 -84q-20 -16 -44 -23.5t-58.5 -5t-78.5 32.5t-90 86l-268 320zM582 506 q23 21 41 41l268 319q46 56 90 86t78 32.5t58 -5t44 -23.5q-18 -6 -42 -27t-39 -39l-15 -18l-227 -303q-11 -16 -28 -31.5t-28 -23.5l-12 -8q43 -29 68 -64l227 -303q55 -70 96 -84q-20 -16 -44 -23.5t-58 -5t-78 32.5t-90 86l-268 320z" />
<glyph unicode="&#xac;" horiz-adv-x="1095" />
<glyph unicode="&#xad;" horiz-adv-x="618" d="M59 436v131q0 -8 222 -8q218 0 258 7q18 4 26 9q-6 -34 -19.5 -59t-37.5 -39.5t-44.5 -23.5t-58.5 -12.5t-59 -4t-64 -0.5h-20q-27 0 -90 1t-76 1q-29 0 -37 -2z" />
<glyph unicode="&#xae;" horiz-adv-x="1617" d="M113 627q0 158 54 295t150.5 235.5t236.5 154.5t306 56q186 0 333.5 -81.5t229.5 -228t82 -331.5q0 -213 -89.5 -382t-256.5 -266t-383 -97q-291 0 -477 181t-186 464zM244 672q0 -249 165 -415.5t412 -166.5q112 0 214 44.5t177.5 121.5t120.5 188t45 236 q0 255 -157.5 419.5t-403.5 164.5q-156 0 -286.5 -75.5t-208.5 -212t-78 -304.5zM565 965v43q79 41 142 41q77 0 77 -78q2 -12 -2 -53l-1 -10l-1 -9q35 60 89 109t120 49q56 0 82.5 -28t26.5 -64t-26.5 -62t-67.5 -37q-8 26 -27.5 40t-40.5 14q-62 0 -100.5 -51.5t-49 -129 t-6.5 -162.5t22 -157t40 -107h-219q14 152 14 486q1 46 -6 79.5t-16 49.5t-21 25t-18 10.5t-11 1.5z" />
<glyph unicode="&#xaf;" horiz-adv-x="686" d="M100 1266v131q0 -8 222 -8q218 0 258 7q19 4 26 9q-6 -34 -19.5 -59t-37.5 -39.5t-44.5 -23.5t-58.5 -12.5t-59 -4t-64 -0.5h-20q-27 0 -90 1t-76 1q-29 0 -37 -2z" />
<glyph unicode="&#xb0;" horiz-adv-x="817" d="M55 1176q0 141 100.5 240.5t243.5 99.5q141 0 240.5 -99.5t99.5 -240.5q0 -143 -99.5 -244t-240.5 -101q-142 0 -243 101t-101 244zM172 1176q0 -92 66.5 -159t158.5 -67q96 0 161 66.5t65 159.5q0 97 -64.5 161t-161.5 64q-93 0 -159 -64.5t-66 -160.5z" />
<glyph unicode="&#xb1;" horiz-adv-x="915" />
<glyph unicode="&#xb4;" horiz-adv-x="692" d="M139 1231q52 16 91 52.5t61.5 76.5t43 77.5t48.5 62t66 24.5h122l-79 -140q-108 -186 -277 -186q-16 0 -34.5 7t-30 15t-11.5 11z" />
<glyph unicode="&#xb5;" horiz-adv-x="1062" />
<glyph unicode="&#xb6;" horiz-adv-x="1273" d="M117 762q0 160 71.5 296t194 215t266.5 79h2h221q219 0 259 7q19 4 26 9q-18 -116 -147 -133q-2 -20 -2 -66q0 -7 -2 -126.5t-4 -308t-3 -349.5q-1 -105 2 -325t6 -388l3 -168h-101q5 616 6.5 856.5t0 487t-8.5 381.5h-90q-2 -18 -2 -60q0 -8 -1.5 -127t-3.5 -308 t-3 -349q-1 -105 1.5 -325t5.5 -388l3 -168h-100q4 450 4 594q0 59 4 86q-52 -19 -102 -22q-136 -10 -255 75.5t-186 227.5t-65 297z" />
<glyph unicode="&#xb7;" horiz-adv-x="528" d="M145 502q0 44 32.5 76t78.5 32q44 0 76.5 -32t32.5 -76q0 -46 -32.5 -78.5t-76.5 -32.5q-46 0 -78.5 32.5t-32.5 78.5z" />
<glyph unicode="&#xb8;" horiz-adv-x="823" d="M205 -377q0 24 8 45q43 -43 145 -43q48 0 81.5 21.5t33.5 56.5q0 26 -28.5 45t-62.5 29.5t-62.5 35t-28.5 60.5q0 30 19.5 60.5t58.5 52.5l43 2q-15 -31 -15 -60q0 -16 20.5 -26.5t50.5 -19t59.5 -21.5t50 -41.5t20.5 -71.5q0 -94 -68.5 -161.5t-164.5 -67.5 q-73 0 -116.5 27.5t-43.5 76.5z" />
<glyph unicode="&#xb9;" horiz-adv-x="526" />
<glyph unicode="&#xba;" horiz-adv-x="843" />
<glyph unicode="&#xbb;" horiz-adv-x="1316" d="M129 55q20 -16 44 -23.5t58 -5t78 32.5t90 86l269 320l41 41q-23 21 -41 41l-269 319q-46 56 -90 86t-78 32.5t-58 -5t-44 -23.5q18 -6 42 -27t39 -39l15 -18l228 -303q11 -16 28 -31.5t28 -23.5l11 -8q-42 -29 -67 -64l-228 -303q-55 -70 -96 -84zM584 55 q20 -16 44 -23.5t58 -5t78 32.5t90 86l268 320l41 41q-23 21 -41 41l-268 319q-46 56 -90 86t-78 32.5t-58 -5t-44 -23.5q18 -6 42 -27t39 -39l15 -18l227 -303q11 -16 28 -31.5t29 -23.5l11 -8q-43 -29 -68 -64l-227 -303q-55 -70 -96 -84z" />
<glyph unicode="&#xbc;" horiz-adv-x="1267" />
<glyph unicode="&#xbd;" horiz-adv-x="1267" />
<glyph unicode="&#xbf;" horiz-adv-x="849" d="M94 150q0 53 26.5 105.5t65.5 93t85.5 85t85.5 82t65.5 83t26.5 89.5t-37 74l47 22q125 -52 125 -149q0 -78 -33.5 -148t-81 -120t-95 -92.5t-81 -84t-33.5 -77.5q0 -70 42 -110t108 -40q46 0 78 28.5t32 82.5q0 24 -8 45q29 39 84 39q49 0 73.5 -27.5t24.5 -60.5 q0 -64 -41.5 -110.5t-102 -67.5t-130.5 -21q-84 0 -157 31t-121 96t-48 152zM350 997q0 46 32.5 78.5t76.5 32.5q46 0 78 -32.5t32 -78.5q0 -44 -32 -76t-78 -32q-44 0 -76.5 32t-32.5 76z" />
<glyph unicode="&#xc0;" horiz-adv-x="1208" d="M10 0l465 1221q12 40 31 69.5t37.5 45.5t45 27.5t44.5 15.5t45 8.5t39 7.5q12 -59 49 -174l360 -1057q24 -89 72 -164h-248q-3 26 -16 70q-23 91 -162 479l-418 2l-186 -524q-2 -7 -3.5 -16t-2.5 -11h-152zM279 1737l79 -99q66 -81 133 -120t166 -39q57 0 86 37 q-52 16 -91.5 45t-62 58.5t-44 56.5t-49.5 44t-66 17h-151zM391 649h350q-33 91 -75.5 215t-68 198t-34.5 91z" />
<glyph unicode="&#xc1;" horiz-adv-x="1208" d="M10 0l465 1221q12 40 31 69.5t37.5 45.5t45 27.5t44.5 15.5t45 8.5t39 7.5q12 -59 49 -174l360 -1057q24 -89 72 -164h-248q-5 46 -14 70l-137 401h-475l-156 -444q-2 -7 -3.5 -16t-2.5 -11h-152zM358 569h406l-199 584zM539 1516q52 16 91.5 45t62 58.5t44 56.5t49.5 44 t66 17h152l-80 -99q-66 -81 -133 -120t-166 -39q-57 0 -86 37z" />
<glyph unicode="&#xc2;" horiz-adv-x="1208" d="M10 0l465 1221q12 40 31 69.5t37.5 45.5t45 27.5t44.5 15.5t45 8.5t39 7.5q12 -59 49 -174l360 -1057q24 -89 72 -164h-248q-5 46 -14 70l-137 401h-475l-156 -444q-2 -7 -3.5 -16t-2.5 -11h-152zM256 1489q37 6 78.5 33.5t76 61.5t67 67t62.5 55.5t52 22.5h39h18 q27 0 59 -22.5t63.5 -55.5t64.5 -67t72.5 -61.5t76.5 -33.5q0 -3 -13 -9.5t-34 -12t-39 -5.5q-110 0 -174.5 48t-103.5 143q-44 -95 -104.5 -143t-174.5 -48q-18 0 -39 5.5t-34 12t-13 9.5zM358 569h406l-199 584z" />
<glyph unicode="&#xc3;" horiz-adv-x="1208" d="M10 0l465 1221q12 40 31 69.5t37.5 45.5t45 27.5t44.5 15.5t45 8.5t39 7.5q12 -59 49 -174l360 -1057q24 -89 72 -164h-248q-5 46 -14 70l-137 401h-475l-156 -444q-2 -7 -3.5 -16t-2.5 -11h-152zM201 1522q69 43 109 52q23 5 44 5q42 0 106 -19.5t143 -39t159 -19.5 q115 0 202.5 45.5t110.5 134.5q-101 -59 -180 -59q-55 0 -191.5 38t-207.5 38q-73 0 -132.5 -17.5t-104.5 -58t-58 -100.5zM358 569h406l-199 584z" />
<glyph unicode="&#xc4;" horiz-adv-x="1208" d="M10 0l465 1221q12 40 31 69.5t37.5 45.5t45 27.5t44.5 15.5t45 8.5t39 7.5q12 -59 49 -174l360 -1057q24 -89 72 -164h-248q-5 46 -14 70l-137 401h-475l-156 -444q-2 -7 -3.5 -16t-2.5 -11h-152zM270 1599q0 46 31 79.5t72 33.5t71.5 -33.5t30.5 -79.5q0 -47 -30 -79.5 t-72 -32.5t-72.5 32.5t-30.5 79.5zM358 569h406l-199 584zM750 1599q0 46 30.5 79.5t71.5 33.5t71.5 -33.5t30.5 -79.5q0 -47 -30 -79.5t-72 -32.5t-72 32.5t-30 79.5z" />
<glyph unicode="&#xc5;" horiz-adv-x="1208" d="M10 0l465 1221q12 40 31 69.5t37.5 45.5t45 27.5t44.5 15.5t45 8.5t39 7.5q12 -59 49 -174l360 -1057q24 -89 72 -164h-248q-5 46 -14 70l-137 401h-475l-156 -444q-2 -7 -3.5 -16t-2.5 -11h-152zM358 569h406l-199 584zM461 1636q0 -80 46 -125t109 -45q85 0 144 54 t59 133q0 76 -47.5 122t-112.5 46q-85 0 -141.5 -51.5t-56.5 -133.5zM543 1659q0 54 26.5 79t63.5 25q43 0 72.5 -33.5t29.5 -97.5q0 -55 -28 -81.5t-64 -26.5q-41 0 -70.5 35.5t-29.5 99.5z" />
<glyph unicode="&#xc6;" horiz-adv-x="1560" d="M-8 0l629 1202q10 27 10 48t-5.5 33.5t-19.5 33.5l15 31h411l350 6q23 -24 33.5 -75.5t8 -96t-14.5 -56.5h-39q-9 46 -69 78t-146 35l-174 6q-14 -243 -14 -500h321q28 0 47 6.5t24 13.5l5 7q4 -16 4 -41q0 -24 -7 -42.5t-16 -30t-27 -20t-30.5 -12.5t-36 -6t-34 -2 h-33.5q-2 0 -50.5 1t-91 2t-77.5 0q-2 -202 6 -480q0 -4 4 -12h389q28 0 47 6.5t24 13.5l5 7q4 -16 4 -41q0 -28 -8 -48.5t-24.5 -32.5t-32 -19.5t-40.5 -10.5t-39.5 -3.5t-39.5 -0.5h-498q2 35 2 96v375h-383l-217 -430q-3 -5 -5.5 -14t-4 -17t-2.5 -10h-160zM430 569h334 v521q0 127 2 170l-41 -109z" />
<glyph unicode="&#xc7;" horiz-adv-x="1267" d="M102 645q0 211 84 376.5t236 258t346 92.5q91 0 179 -24.5t150 -75t62 -115.5q0 -32 -28.5 -65t-77.5 -33q-35 0 -78 22q-1 16 -7.5 35t-23 43.5t-41 43.5t-66.5 32.5t-94 13.5q-82 0 -150.5 -28t-115 -76.5t-78.5 -115t-46.5 -140.5t-14.5 -156q0 -87 14.5 -172 t47.5 -168t81.5 -145t123 -100.5t165.5 -38.5q44 0 93.5 10.5t102.5 32t99 62.5t70 95q22 -49 22 -86q0 -105 -121 -174.5t-293 -75.5q-8 -20 -8 -45q0 -16 20.5 -26.5t50.5 -19t59.5 -21.5t50 -41.5t20.5 -71.5q0 -94 -68.5 -161.5t-165.5 -67.5q-73 0 -116 27.5t-43 76.5 q0 24 8 45q43 -43 145 -43q48 0 81.5 21.5t33.5 56.5q0 26 -28.5 45t-62.5 29.5t-62.5 35t-28.5 60.5q0 56 55 100q-185 5 -317.5 92.5t-198.5 236t-66 343.5z" />
<glyph unicode="&#xc8;" horiz-adv-x="985" d="M125 1313l14 35h307l351 6q23 -24 33.5 -75.5t7.5 -96t-15 -56.5h-39q-9 46 -69 78t-146 35l-174 6q-14 -243 -14 -500h321q28 0 47 6.5t24 13.5l5 7q4 -16 4 -41q0 -24 -7 -42.5t-16 -30t-27 -20t-30.5 -12.5t-36 -6t-34 -2h-33.5q-2 0 -50.5 1t-91 2t-77.5 0 q-2 -202 6 -480q0 -4 4 -12h389q28 0 47 6.5t24 13.5l5 7q4 -16 4 -41q0 -28 -8 -48.5t-24.5 -32.5t-32 -19.5t-40.5 -10.5t-39.5 -3.5t-39.5 -0.5h-498l2 139v946q0 26 -1 49t-3.5 41.5t-4 32.5t-6.5 28t-6.5 20.5t-8 18t-7.5 14t-9 13.5zM172 1737l80 -99q66 -81 133 -120 t166 -39q57 0 86 37q-52 16 -91.5 45t-62 58.5t-44 56.5t-49.5 44t-66 17h-152z" />
<glyph unicode="&#xc9;" horiz-adv-x="985" d="M125 1313l14 35h307l351 6q23 -24 33.5 -75.5t7.5 -96t-15 -56.5h-39q-9 46 -69 78t-146 35l-174 6q-14 -243 -14 -500h321q28 0 47 6.5t24 13.5l5 7q4 -16 4 -41q0 -24 -7 -42.5t-16 -30t-27 -20t-30.5 -12.5t-36 -6t-34 -2h-33.5q-2 0 -50.5 1t-91 2t-77.5 0 q-2 -202 6 -480q0 -4 4 -12h389q28 0 47 6.5t24 13.5l5 7q4 -16 4 -41q0 -28 -8 -48.5t-24.5 -32.5t-32 -19.5t-40.5 -10.5t-39.5 -3.5t-39.5 -0.5h-498l2 139v946q0 26 -1 49t-3.5 41.5t-4 32.5t-6.5 28t-6.5 20.5t-8 18t-7.5 14t-9 13.5zM395 1516q52 16 91.5 45 t62.5 58.5t44.5 56.5t49.5 44t66 17h151l-80 -99q-66 -81 -133 -120t-166 -39q-57 0 -86 37z" />
<glyph unicode="&#xca;" horiz-adv-x="985" d="M127 1313l14 35h308l350 6q23 -24 33.5 -75.5t7.5 -96t-15 -56.5h-39q-9 46 -69 78t-146 35l-174 6q-14 -243 -14 -500h322q28 0 46.5 6.5t23.5 13.5l5 7q4 -16 4 -41q0 -24 -7 -42.5t-16 -30t-27 -20t-30.5 -12.5t-36 -6t-34 -2h-33.5q-2 0 -50.5 1t-91 2t-77.5 0 q-2 -202 6 -480q0 -4 4 -12h389q28 0 47 6.5t24 13.5l5 7q4 -16 4 -41q0 -28 -8 -48.5t-24.5 -32.5t-32 -19.5t-40.5 -10.5t-39.5 -3.5t-39.5 -0.5h-498l2 139v946q0 26 -1 49t-3.5 41.5t-4 32.5t-6.5 28t-6.5 20.5t-8 18t-7.5 14t-9 13.5zM133 1489q37 6 78.5 33.5t76 61.5 t67 67t62.5 55.5t52 22.5h39h18q27 0 59 -22.5t63.5 -55.5t64.5 -67t72.5 -61.5t76.5 -33.5q0 -3 -13 -9.5t-34 -12t-39 -5.5q-110 0 -174.5 48t-103.5 143q-44 -95 -104.5 -143t-174.5 -48q-18 0 -39 5.5t-34 12t-13 9.5z" />
<glyph unicode="&#xcb;" horiz-adv-x="985" d="M125 1313l14 35h307l351 6q23 -24 33.5 -75.5t7.5 -96t-15 -56.5h-39q-9 46 -69 78t-146 35l-174 6q-14 -243 -14 -500h321q28 0 47 6.5t24 13.5l5 7q4 -16 4 -41q0 -24 -7 -42.5t-16 -30t-27 -20t-30.5 -12.5t-36 -6t-34 -2h-33.5q-2 0 -50.5 1t-91 2t-77.5 0 q-2 -202 6 -480q0 -4 4 -12h389q28 0 47 6.5t24 13.5l5 7q4 -16 4 -41q0 -28 -8 -48.5t-24.5 -32.5t-32 -19.5t-40.5 -10.5t-39.5 -3.5t-39.5 -0.5h-498l2 139v946q0 26 -1 49t-3.5 41.5t-4 32.5t-6.5 28t-6.5 20.5t-8 18t-7.5 14t-9 13.5zM168 1599q0 46 30.5 79.5 t71.5 33.5t72 -33.5t31 -79.5q0 -47 -30.5 -79.5t-72.5 -32.5t-72 32.5t-30 79.5zM647 1599q0 46 31 79.5t72 33.5t71.5 -33.5t30.5 -79.5q0 -47 -30 -79.5t-72 -32.5t-72.5 32.5t-30.5 79.5z" />
<glyph unicode="&#xcc;" horiz-adv-x="661" d="M-16 1737l79 -99q66 -81 133 -120t166 -39q58 0 87 37q-52 16 -91.5 45t-62.5 58.5t-44.5 56.5t-49.5 44t-66 17h-151zM172 1315l14 35q64 26 142 26q64 0 116 -24q-20 -458 -20 -811q0 -494 22 -541h-225q4 136 4 1090q0 30 -1.5 55.5t-3 43t-6 35t-7 26.5t-9 21.5 t-8.5 16t-9.5 15t-8.5 12.5z" />
<glyph unicode="&#xcd;" horiz-adv-x="661" d="M168 1516q52 16 91.5 45t62 58.5t44 56.5t49.5 44t66 17h152l-80 -99q-66 -81 -133 -120t-166 -39q-57 0 -86 37zM172 1315l14 35q64 26 142 26q64 0 116 -24q-20 -458 -20 -811q0 -494 22 -541h-225q4 136 4 1090q0 30 -1.5 55.5t-3 43t-6 35t-7 26.5t-9 21.5t-8.5 16 t-9.5 15t-8.5 12.5z" />
<glyph unicode="&#xce;" horiz-adv-x="661" d="M-41 1489q37 6 78.5 33.5t76 61.5t67 67t62.5 55.5t52 22.5h39h18q27 0 59 -22.5t63.5 -55.5t64.5 -67t72.5 -61.5t76.5 -33.5q0 -3 -13 -9.5t-34 -12t-39 -5.5q-110 0 -174.5 48t-103.5 143q-44 -95 -104.5 -143t-174.5 -48q-18 0 -39 5.5t-34 12t-13 9.5zM172 1315 l14 35q64 26 142 26q64 0 116 -24q-20 -458 -20 -811q0 -494 22 -541h-225q4 136 4 1090q0 30 -1.5 55.5t-3 43t-6 35t-7 26.5t-9 21.5t-8.5 16t-9.5 15t-8.5 12.5z" />
<glyph unicode="&#xcf;" horiz-adv-x="661" d="M20 1599q0 46 31 79.5t72 33.5t71.5 -33.5t30.5 -79.5q0 -47 -30 -79.5t-72 -32.5t-72.5 32.5t-30.5 79.5zM172 1315l14 35q64 26 142 26q64 0 116 -24q-20 -458 -20 -811q0 -494 22 -541h-225q4 136 4 1090q0 30 -1.5 55.5t-3 43t-6 35t-7 26.5t-9 21.5t-8.5 16t-9.5 15 t-8.5 12.5zM397 1599q0 46 31 79.5t72 33.5t71.5 -33.5t30.5 -79.5q0 -47 -30 -79.5t-72 -32.5t-72.5 32.5t-30.5 79.5z" />
<glyph unicode="&#xd1;" horiz-adv-x="1538" d="M182 1315l15 35q80 31 122 20q35 -42 66 -78t82.5 -94.5t228.5 -261t430 -494.5q19 -21 38 -53.5t28 -54.5l10 -23q-14 86 -14 129q4 10 4 654q0 159 -53 221l14 35q34 24 102 24q65 0 93 -22q-25 -567 -25 -961q0 -231 10 -391h-112l-779 891q-70 90 -84 127 q7 -40 7 -90t-2.5 -151t-2.5 -152q0 -456 21 -625h-148v33q3 399 3 731v330q0 84 -11 131.5t-43 89.5zM326 1522q69 43 109 52q23 5 44 5q42 0 106 -19.5t143 -39t159 -19.5q115 0 202.5 45.5t110.5 134.5q-101 -59 -180 -59q-55 0 -191.5 38t-207.5 38q-73 0 -132.5 -17.5 t-104.5 -58t-58 -100.5z" />
<glyph unicode="&#xd2;" horiz-adv-x="1390" d="M100 651q0 -129 29.5 -240.5t80 -190.5t117.5 -135.5t141.5 -84t152.5 -27.5q149 0 273.5 56t209 153.5t132 230t50.5 285.5q0 161 -43 291t-118 212.5t-173 126.5t-211 44q-137 0 -255.5 -53.5t-203.5 -147.5t-133.5 -228.5t-48.5 -291.5zM322 717q0 144 45 265t125 192 t178 71q104 0 194.5 -82.5t144.5 -225t54 -308.5q0 -145 -44.5 -267t-124 -194t-175.5 -72q-108 0 -200.5 89t-144.5 231.5t-52 300.5zM371 1737l80 -99q66 -81 133 -120t166 -39q57 0 86 37q-52 16 -91.5 45t-62.5 58.5t-44.5 56.5t-49.5 44t-66 17h-151z" />
<glyph unicode="&#xd3;" horiz-adv-x="1390" d="M100 651q0 -129 29.5 -240.5t80 -190.5t117.5 -135.5t141.5 -84t152.5 -27.5q149 0 273.5 56t209 153.5t132 230t50.5 285.5q0 161 -43 291t-118 212.5t-173 126.5t-211 44q-137 0 -255.5 -53.5t-203.5 -147.5t-133.5 -228.5t-48.5 -291.5zM322 717q0 144 45 265t125 192 t178 71q104 0 194.5 -82.5t144.5 -225t54 -308.5q0 -145 -44.5 -267t-124 -194t-175.5 -72q-108 0 -200.5 89t-144.5 231.5t-52 300.5zM573 1516q52 16 91.5 45t62.5 58.5t44.5 56.5t49.5 44t66 17h151l-80 -99q-66 -81 -133 -120t-166 -39q-57 0 -86 37z" />
<glyph unicode="&#xd4;" horiz-adv-x="1390" d="M100 651q0 -129 29.5 -240.5t80 -190.5t117.5 -135.5t141.5 -84t152.5 -27.5q149 0 273.5 56t209 153.5t132 230t50.5 285.5q0 161 -43 291t-118 212.5t-173 126.5t-211 44q-137 0 -255.5 -53.5t-203.5 -147.5t-133.5 -228.5t-48.5 -291.5zM322 717q0 144 45 265t125 192 t178 71q104 0 194.5 -82.5t144.5 -225t54 -308.5q0 -145 -44.5 -267t-124 -194t-175.5 -72q-108 0 -200.5 89t-144.5 231.5t-52 300.5zM354 1489q37 6 78.5 33.5t76 61.5t67 67t62.5 55.5t52 22.5h39h19q27 0 59 -22.5t63.5 -55.5t64 -67t72 -61.5t76.5 -33.5q0 -3 -13 -9.5 t-34 -12t-39 -5.5q-110 0 -174.5 48t-103.5 143q-44 -95 -104.5 -143t-174.5 -48q-18 0 -39 5.5t-34 12t-13 9.5z" />
<glyph unicode="&#xd5;" horiz-adv-x="1390" d="M100 651q0 -129 29.5 -240.5t80 -190.5t117.5 -135.5t141.5 -84t152.5 -27.5q149 0 273.5 56t209 153.5t132 230t50.5 285.5q0 161 -43 291t-118 212.5t-173 126.5t-211 44q-137 0 -255.5 -53.5t-203.5 -147.5t-133.5 -228.5t-48.5 -291.5zM287 1522q69 43 109 52 q23 5 44 5q42 0 106 -19.5t143 -39t159 -19.5q115 0 202.5 45.5t110.5 134.5q-101 -59 -180 -59q-55 0 -191.5 38t-207.5 38q-73 0 -132.5 -17.5t-104.5 -58t-58 -100.5zM322 717q0 144 45 265t125 192t178 71q104 0 194.5 -82.5t144.5 -225t54 -308.5q0 -145 -44.5 -267 t-124 -194t-175.5 -72q-108 0 -200.5 89t-144.5 231.5t-52 300.5z" />
<glyph unicode="&#xd6;" horiz-adv-x="1390" d="M100 651q0 -129 29.5 -240.5t80 -190.5t117.5 -135.5t141.5 -84t152.5 -27.5q149 0 273.5 56t209 153.5t132 230t50.5 285.5q0 161 -43 291t-118 212.5t-173 126.5t-211 44q-137 0 -255.5 -53.5t-203.5 -147.5t-133.5 -228.5t-48.5 -291.5zM322 717q0 144 45 265t125 192 t178 71q104 0 194.5 -82.5t144.5 -225t54 -308.5q0 -145 -44.5 -267t-124 -194t-175.5 -72q-108 0 -200.5 89t-144.5 231.5t-52 300.5zM342 1599q0 46 30.5 79.5t71.5 33.5t72 -33.5t31 -79.5q0 -47 -30.5 -79.5t-72.5 -32.5t-72 32.5t-30 79.5zM821 1599q0 46 31 79.5 t72 33.5t71.5 -33.5t30.5 -79.5q0 -47 -30 -79.5t-72 -32.5t-72.5 32.5t-30.5 79.5z" />
<glyph unicode="&#xd8;" horiz-adv-x="1392" d="M16 74l70 -72q62 66 150 156q69 -94 166.5 -141.5t209.5 -47.5q148 0 274.5 56.5t213 154.5t136.5 232t52 286q0 257 -94 420q18 16 50.5 45.5t48 44t34.5 35t27 35.5t8 29q0 16 -14 29t-50 36q-91 -108 -157 -176q-70 87 -166.5 131.5t-208.5 44.5q-192 0 -342 -91.5 t-234 -255.5t-88 -374q0 -247 82 -411q-109 -109 -168 -166zM324 713q0 224 102 377t244 153q98 0 171.5 -55t135.5 -156q-308 -314 -608 -612q-45 133 -45 293zM401 332q47 48 307 308.5t310 309.5q59 -138 59 -348q-2 -110 -35.5 -206.5t-86 -161.5t-117 -102.5 t-129.5 -37.5q-94 0 -174 63.5t-134 174.5z" />
<glyph unicode="&#xd9;" horiz-adv-x="1445" d="M168 1315l14 35q64 26 142 26q64 0 116 -24q-10 -254 -10 -897q0 -86 21.5 -151t53.5 -101t76.5 -58.5t82 -29t79.5 -6.5q150 0 251.5 79.5t109.5 194.5q8 67 8 711q0 159 -53 221l14 35q34 24 103 24q64 0 92 -22q-21 -476 -21 -908q0 -205 -139.5 -339t-382.5 -134 q-112 0 -195.5 21t-152 71t-105.5 141.5t-41 223.5q-10 390 -10 662q0 30 -1.5 55.5t-3 43t-6 35t-7 26.5t-9 21.5t-8.5 16t-9.5 15t-8.5 12.5zM418 1737l80 -99q66 -81 133 -120t166 -39q57 0 86 37q-52 16 -91.5 45t-62.5 58.5t-44.5 56.5t-49.5 44t-66 17h-151z" />
<glyph unicode="&#xda;" horiz-adv-x="1445" d="M168 1315l14 35q64 26 142 26q64 0 116 -24q-10 -254 -10 -897q0 -86 21.5 -151t53.5 -101t76.5 -58.5t82 -29t79.5 -6.5q150 0 251.5 79.5t109.5 194.5q8 67 8 711q0 159 -53 221l14 35q34 24 103 24q64 0 92 -22q-21 -476 -21 -908q0 -205 -139.5 -339t-382.5 -134 q-112 0 -195.5 21t-152 71t-105.5 141.5t-41 223.5q-10 390 -10 662q0 30 -1.5 55.5t-3 43t-6 35t-7 26.5t-9 21.5t-8.5 16t-9.5 15t-8.5 12.5zM588 1516q52 16 91.5 45t62 58.5t44 56.5t49.5 44t66 17h152l-80 -99q-66 -81 -133 -120t-166 -39q-57 0 -86 37z" />
<glyph unicode="&#xdb;" horiz-adv-x="1445" d="M168 1315l14 35q64 26 142 26q64 0 116 -24q-10 -254 -10 -897q0 -86 21.5 -151t53.5 -101t76.5 -58.5t82 -29t79.5 -6.5q150 0 251.5 79.5t109.5 194.5q8 67 8 711q0 159 -53 221l14 35q34 24 103 24q64 0 92 -22q-21 -476 -21 -908q0 -205 -139.5 -339t-382.5 -134 q-112 0 -195.5 21t-152 71t-105.5 141.5t-41 223.5q-10 390 -10 662q0 30 -1.5 55.5t-3 43t-6 35t-7 26.5t-9 21.5t-8.5 16t-9.5 15t-8.5 12.5zM393 1489q37 6 78.5 33.5t76 61.5t67 67t62.5 55.5t52 22.5h39h18q27 0 59 -22.5t63.5 -55.5t64.5 -67t72.5 -61.5t76.5 -33.5 q0 -3 -13 -9.5t-34 -12t-39 -5.5q-110 0 -174.5 48t-103.5 143q-44 -95 -104.5 -143t-174.5 -48q-18 0 -39 5.5t-34 12t-13 9.5z" />
<glyph unicode="&#xdc;" horiz-adv-x="1445" d="M168 1315l14 35q64 26 142 26q64 0 116 -24q-10 -254 -10 -897q0 -86 21.5 -151t53.5 -101t76.5 -58.5t82 -29t79.5 -6.5q150 0 251.5 79.5t109.5 194.5q8 67 8 711q0 159 -53 221l14 35q34 24 103 24q64 0 92 -22q-21 -476 -21 -908q0 -205 -139.5 -339t-382.5 -134 q-112 0 -195.5 21t-152 71t-105.5 141.5t-41 223.5q-10 390 -10 662q0 30 -1.5 55.5t-3 43t-6 35t-7 26.5t-9 21.5t-8.5 16t-9.5 15t-8.5 12.5zM416 1599q0 46 30.5 79.5t71.5 33.5t72 -33.5t31 -79.5q0 -47 -30.5 -79.5t-72.5 -32.5t-72 32.5t-30 79.5zM895 1599 q0 46 30.5 79.5t71.5 33.5t72 -33.5t31 -79.5q0 -47 -30.5 -79.5t-72.5 -32.5t-72 32.5t-30 79.5z" />
<glyph unicode="&#xdf;" horiz-adv-x="1671" d="M96 809q0 116 91 205.5t243 89.5q66 0 127.5 -14.5t88 -27t63.5 -32.5q12 -26 5.5 -94t-36.5 -96l-35 6q-18 54 -62 92t-88 52t-83 14q-67 0 -115.5 -32t-48.5 -98q0 -43 29 -81.5t76 -69t103.5 -61t113 -66.5t103.5 -77t76 -100t29 -128q0 -131 -110.5 -224.5 t-278.5 -93.5q-114 0 -201.5 50t-87.5 114q0 39 19 68q11 -36 96 -70.5t168 -34.5q215 0 215 144q0 40 -27.5 77t-71.5 68t-97.5 62.5t-107 67.5t-97.5 76t-71.5 95.5t-27.5 118.5zM932 809q0 116 91 205.5t243 89.5q66 0 127 -14.5t87.5 -26.5t63.5 -33q12 -26 5.5 -94 t-36.5 -96l-34 6q-18 54 -62.5 92t-88 52t-83.5 14q-67 0 -115.5 -32t-48.5 -98q0 -43 29.5 -81.5t76 -69t103 -61t113.5 -66.5t103.5 -77t76 -100t29.5 -128q0 -131 -110.5 -224.5t-278.5 -93.5q-114 0 -201.5 50t-87.5 114q0 41 18 68q11 -36 96.5 -70.5t168.5 -34.5 q215 0 215 144q0 40 -27.5 77t-71.5 68t-97.5 62.5t-107 67.5t-97.5 76t-71.5 95.5t-27.5 118.5z" />
<glyph unicode="&#xe0;" horiz-adv-x="1067" d="M8 0l402 977q13 38 34.5 64t50.5 39t51.5 19t54.5 10.5t42 6.5q11 -47 43 -139l311 -846q20 -66 62 -131h-225q-5 35 -13 55l-116 316h-414l-133 -351q-2 -4 -3.5 -11t-2.5 -9h-144zM219 1524l80 -140q108 -186 276 -186q16 0 34.5 7t30 15t11.5 11q-52 16 -91 52.5 t-61 76.5t-42.5 77.5t-48.5 62t-66 24.5h-123zM322 461h350l-172 461z" />
<glyph unicode="&#xe1;" horiz-adv-x="1067" d="M8 0l402 977q13 38 34.5 64t50.5 39t51.5 19t54.5 10.5t42 6.5q11 -47 43 -139l311 -846q20 -66 62 -131h-225q-5 35 -13 55l-116 316h-414l-133 -351q-2 -4 -3.5 -11t-2.5 -9h-144zM322 461h350l-172 461zM436 1231q52 16 91 52.5t61 76.5t42.5 77.5t48.5 62t66 24.5 h123l-80 -140q-108 -186 -276 -186q-16 0 -34.5 7t-30 15t-11.5 11z" />
<glyph unicode="&#xe2;" horiz-adv-x="1067" d="M8 0l402 977q13 38 34.5 64t50.5 39t51.5 19t54.5 10.5t42 6.5q11 -47 43 -139l311 -846q20 -66 62 -131h-225q-5 35 -13 55l-116 316h-414l-133 -351q-2 -4 -3.5 -11t-2.5 -9h-144zM211 1231q40 9 86.5 57t80 100t70 94t60.5 42h33h16q24 0 52.5 -27.5t56.5 -68t57 -82 t63.5 -75t67.5 -40.5q0 -3 -11.5 -11t-30 -15t-34.5 -7q-42 0 -71 6.5t-52.5 24t-39 36t-40.5 54.5q-12 16 -22.5 44t-15.5 49l-5 20q-18 -78 -45 -113q-39 -60 -81 -90.5t-119 -30.5q-16 0 -34.5 7t-30 15t-11.5 11zM322 461h350l-172 461z" />
<glyph unicode="&#xe3;" horiz-adv-x="1067" d="M8 0l402 977q13 38 34.5 64t50.5 39t51.5 19t54.5 10.5t42 6.5q11 -47 43 -139l311 -846q20 -66 62 -131h-225q-5 35 -13 55l-116 316h-414l-133 -351q-2 -4 -3.5 -11t-2.5 -9h-144zM195 1282q74 55 129 51q34 -2 125 -33.5t159 -35.5q100 -6 177 35t96 128 q-83 -59 -152 -55q-36 4 -130.5 34.5t-145.5 33.5q-61 4 -113.5 -9.5t-93 -51.5t-51.5 -97zM322 461h350l-172 461z" />
<glyph unicode="&#xe4;" horiz-adv-x="1067" d="M8 0l402 977q13 38 34.5 64t50.5 39t51.5 19t54.5 10.5t42 6.5q11 -47 43 -139l311 -846q20 -66 62 -131h-225q-5 35 -13 55l-116 316h-414l-133 -351q-2 -4 -3.5 -11t-2.5 -9h-144zM242 1313q0 46 30.5 79t71.5 33t71.5 -33t30.5 -79q0 -47 -30 -80t-72 -33t-72 33 t-30 80zM322 461h350l-172 461zM618 1313q0 46 31 79t72 33t71.5 -33t30.5 -79q0 -47 -30 -80t-72 -33t-72.5 33t-30.5 80z" />
<glyph unicode="&#xe5;" horiz-adv-x="1067" d="M8 0l402 977q13 38 34.5 64t50.5 39t51.5 19t54.5 10.5t42 6.5q11 -47 43 -139l311 -846q20 -66 62 -131h-225q-5 35 -13 55l-116 316h-414l-133 -351q-2 -4 -3.5 -11t-2.5 -9h-144zM322 461h350l-172 461zM365 1348q0 -80 46 -125t109 -45q85 0 144 53.5t59 132.5 q0 76 -47.5 122t-112.5 46q-85 0 -141.5 -51t-56.5 -133zM446 1370q0 54 27 79.5t64 25.5q43 0 72.5 -34t29.5 -98q0 -55 -28 -81.5t-64 -26.5q-41 0 -71 35.5t-30 99.5z" />
<glyph unicode="&#xe6;" horiz-adv-x="1396" d="M8 0l541 963q12 36 9.5 52t-19.5 38l10 28l391 2l303 7q20 -19 29 -63.5t6.5 -83.5t-12.5 -48h-33q-9 37 -61 62t-125 28l-129 4q-25 0 -37 -2q1 -16 -1 -79t-5 -165.5t-5 -169.5h269q24 0 41 5.5t22 11.5l4 6q2 -15 2 -33q0 -27 -8.5 -46t-28.5 -30t-40 -17.5t-55 -8 t-61 -1.5t-71.5 1.5t-73.5 1.5v-107q0 -73 4 -233q0 -4 3 -10h329q24 0 40 5.5t20 11.5l4 5q4 -15 4 -33q0 -102 -160 -102h-430v78v289h-336l-182 -334q-4 -6 -7 -19t-3 -14h-148zM395 455h289v417q0 101 2 136l-35 -86z" />
<glyph unicode="&#xe7;" horiz-adv-x="1107" d="M113 516q0 256 159.5 419t413.5 163q80 0 156.5 -19t130 -59.5t53.5 -93.5q0 -26 -26 -52t-68 -26q-30 0 -66 16q-2 18 -10 36t-26.5 40t-58.5 35.5t-95 13.5q-112 0 -193 -57t-119 -146.5t-38 -199.5q0 -86 22.5 -170t65.5 -157t117 -118t167 -45q85 0 176 40t130 122 q18 -38 18 -80q0 -85 -102.5 -138.5t-253.5 -59.5q-11 -32 -11 -52q0 -16 20.5 -26.5t50.5 -19t59.5 -21.5t50 -41.5t20.5 -71.5q0 -94 -68.5 -161.5t-164.5 -67.5q-73 0 -116.5 27.5t-43.5 76.5q0 24 8 45q43 -43 145 -43q48 0 81.5 21.5t33.5 56.5q0 26 -28.5 45 t-62.5 29.5t-62.5 35t-28.5 60.5q0 63 63 104q-239 6 -369 153.5t-130 385.5z" />
<glyph unicode="&#xe8;" horiz-adv-x="913" d="M162 1057l12 26h266l303 7q20 -19 29 -63.5t6.5 -83.5t-12.5 -48h-33q-9 37 -61 62t-125 28l-139 4q-13 -266 -13 -387h267q24 0 40.5 6t20.5 12l4 5q4 -21 4 -39q0 -26 -11.5 -45t-27 -29t-39.5 -15.5t-41.5 -6.5t-40.5 -1q-1 0 -25 0.5t-50 0.5h-56t-45 -1 q-3 -186 4 -364q0 -2 4 -10h324q24 0 40.5 5.5t20.5 11.5l5 5q4 -21 4 -39q0 -32 -15.5 -53.5t-43 -30.5t-49.5 -11.5t-52 -2.5h-430l2 111v763q0 24 -1.5 44t-3 34.5t-5.5 28.5t-6 21.5t-7.5 18t-7.5 13.5t-8.5 12.5t-7.5 10.5zM197 1524l79 -140q108 -186 277 -186 q16 0 34.5 7t30 15t11.5 11q-52 16 -91 52.5t-61.5 76.5t-43 77.5t-48.5 62t-66 24.5h-122z" />
<glyph unicode="&#xe9;" horiz-adv-x="913" d="M162 1057l12 26h266l303 7q20 -19 29 -63.5t6.5 -83.5t-12.5 -48h-33q-9 37 -61 62t-125 28l-139 4q-13 -266 -13 -387h267q24 0 40.5 6t20.5 12l4 5q4 -21 4 -39q0 -26 -11.5 -45t-27 -29t-39.5 -15.5t-41.5 -6.5t-40.5 -1q-1 0 -25 0.5t-50 0.5h-56t-45 -1 q-3 -186 4 -364q0 -2 4 -10h324q24 0 40.5 5.5t20.5 11.5l5 5q4 -21 4 -39q0 -32 -15.5 -53.5t-43 -30.5t-49.5 -11.5t-52 -2.5h-430l2 111v763q0 24 -1.5 44t-3 34.5t-5.5 28.5t-6 21.5t-7.5 18t-7.5 13.5t-8.5 12.5t-7.5 10.5zM356 1231q52 16 91 52.5t61.5 76.5t43 77.5 t48.5 62t66 24.5h122l-79 -140q-108 -186 -277 -186q-16 0 -34.5 7t-30 15t-11.5 11z" />
<glyph unicode="&#xea;" horiz-adv-x="913" d="M162 1057l12 26h266l303 7q20 -19 29 -63.5t6.5 -83.5t-12.5 -48h-33q-9 37 -61 62t-125 28l-139 4q-13 -266 -13 -387h267q24 0 40.5 6t20.5 12l4 5q4 -21 4 -39q0 -26 -11.5 -45t-27 -29t-39.5 -15.5t-41.5 -6.5t-40.5 -1q-1 0 -25 0.5t-50 0.5h-56t-45 -1 q-3 -186 4 -364q0 -2 4 -10h324q24 0 40.5 5.5t20.5 11.5l5 5q4 -21 4 -39q0 -32 -15.5 -53.5t-43 -30.5t-49.5 -11.5t-52 -2.5h-430l2 111v763q0 24 -1.5 44t-3 34.5t-5.5 28.5t-6 21.5t-7.5 18t-7.5 13.5t-8.5 12.5t-7.5 10.5zM170 1231q40 9 86.5 57t80 100t70 94 t60.5 42h33h16q24 0 52.5 -27.5t56.5 -68t57 -82t63.5 -75t67.5 -40.5q0 -3 -11.5 -11t-30 -15t-34.5 -7q-78 0 -116 25.5t-86 95.5q-12 16 -22.5 44t-15.5 49l-5 20q-19 -78 -46 -113q-39 -60 -81 -90.5t-119 -30.5q-16 0 -34.5 7t-30 15t-11.5 11z" />
<glyph unicode="&#xeb;" horiz-adv-x="913" d="M162 1057l12 26h266l303 7q20 -19 29 -63.5t6.5 -83.5t-12.5 -48h-33q-9 37 -61 62t-125 28l-139 4q-13 -266 -13 -387h267q24 0 40.5 6t20.5 12l4 5q4 -21 4 -39q0 -26 -11.5 -45t-27 -29t-39.5 -15.5t-41.5 -6.5t-40.5 -1q-1 0 -25 0.5t-50 0.5h-56t-45 -1 q-3 -186 4 -364q0 -2 4 -10h324q24 0 40.5 5.5t20.5 11.5l5 5q4 -21 4 -39q0 -32 -15.5 -53.5t-43 -30.5t-49.5 -11.5t-52 -2.5h-430l2 111v763q0 24 -1.5 44t-3 34.5t-5.5 28.5t-6 21.5t-7.5 18t-7.5 13.5t-8.5 12.5t-7.5 10.5zM186 1313q0 46 31 79t72 33t71.5 -33 t30.5 -79q0 -47 -30 -80t-72 -33t-72.5 33t-30.5 80zM563 1313q0 46 31 79t72 33t71.5 -33t30.5 -79q0 -47 -30 -80t-72 -33t-72.5 33t-30.5 80z" />
<glyph unicode="&#xec;" horiz-adv-x="626" d="M133 1030v31q7 5 20 12t53 19t81 12q88 0 112.5 -64t14.5 -215q-20 -274 0 -753q0 -17 4 -44t4 -28h-203v27q2 189 2 401t-1 329l-1 117q0 71 -23 111t-63 45zM133 1524l80 -140q108 -186 276 -186q16 0 34.5 7t30 15t11.5 11q-52 16 -91 52.5t-61 76.5t-42.5 77.5 t-48.5 62t-66 24.5h-123z" />
<glyph unicode="&#xed;" horiz-adv-x="626" d="M133 1030v31q7 5 20 12t53 19t81 12q88 0 112.5 -64t14.5 -215q-20 -274 0 -753q0 -17 4 -44t4 -28h-203v27q2 189 2 401t-1 329l-1 117q0 71 -23 111t-63 45zM141 1231q52 16 91 52.5t61.5 76.5t43 77.5t48.5 62t66 24.5h122l-79 -140q-108 -186 -277 -186 q-16 0 -34.5 7t-30 15t-11.5 11z" />
<glyph unicode="&#xee;" horiz-adv-x="626" d="M133 1030v31q7 5 20 12t53 19t81 12q88 0 112.5 -64t14.5 -215q-20 -274 0 -753q0 -17 4 -44t4 -28h-203v27q2 189 2 401t-1 329l-1 117q0 71 -23 111t-63 45zM133 1231q40 9 86.5 57t80 100t70 94t60.5 42h33h16q24 0 52.5 -27.5t56.5 -68t57 -82t63.5 -75t67.5 -40.5 q0 -3 -11.5 -11t-30 -15t-34.5 -7q-78 0 -116 25.5t-86 95.5q-12 16 -22.5 44t-15.5 49l-5 20q-18 -78 -45 -113q-39 -60 -81.5 -90.5t-119.5 -30.5q-16 0 -34.5 7t-30 15t-11.5 11z" />
<glyph unicode="&#xef;" horiz-adv-x="626" d="M133 1030v31q7 5 20 12t53 19t81 12q88 0 112.5 -64t14.5 -215q-20 -274 0 -753q0 -17 4 -44t4 -28h-203v27q2 189 2 401t-1 329l-1 117q0 71 -23 111t-63 45zM133 1313q0 46 31 79t72 33t71.5 -33t30.5 -79q0 -47 -30 -80t-72 -33t-72.5 33t-30.5 80zM510 1313 q0 46 30.5 79t71.5 33t72 -33t31 -79q0 -47 -30.5 -80t-72.5 -33t-72 33t-30 80z" />
<glyph unicode="&#xf1;" horiz-adv-x="1406" d="M174 1057l12 26q81 30 131 17q12 -14 50 -57t78 -87.5t184 -199.5t375 -402q16 -17 32.5 -43t24.5 -43l8 -18q-12 67 -12 102q4 12 4 527q0 128 -47 178l12 26q32 21 96 21q61 0 86 -19q-22 -398 -22 -772q0 -157 8 -313h-121l-661 717q-62 71 -74 102q6 -27 6 -74 q0 -40 -2 -122t-2 -123q0 -369 18 -500h-141v27q2 213 2 583v269q0 68 -9 106t-36 72zM344 1282q74 55 129 51q34 -2 125.5 -33.5t159.5 -35.5q99 -6 176 35t96 128q-83 -59 -151 -55q-36 4 -131 34.5t-146 33.5q-61 4 -113.5 -9.5t-93 -51.5t-51.5 -97z" />
<glyph unicode="&#xf2;" horiz-adv-x="1249" d="M106 520q0 -128 40 -234t106 -173t146.5 -103.5t164.5 -36.5q128 0 237 46t183 125t116.5 186t45.5 229q0 129 -38.5 234t-104.5 172t-151.5 103t-182.5 36q-158 0 -286.5 -74.5t-202 -208.5t-73.5 -301zM311 573q0 176 83.5 296t211.5 120q90 0 166 -64.5t121 -176 t45 -244.5q0 -179 -82.5 -299.5t-208.5 -120.5q-94 0 -172 69t-121 181t-43 239zM326 1524l80 -140q108 -186 276 -186q16 0 34.5 7t30 15t11.5 11q-52 16 -91 52.5t-61 76.5t-42.5 77.5t-48.5 62t-66 24.5h-123z" />
<glyph unicode="&#xf3;" horiz-adv-x="1249" d="M106 520q0 -128 40 -234t106 -173t146.5 -103.5t164.5 -36.5q128 0 237 46t183 125t116.5 186t45.5 229q0 129 -38.5 234t-104.5 172t-151.5 103t-182.5 36q-158 0 -286.5 -74.5t-202 -208.5t-73.5 -301zM311 573q0 176 83.5 296t211.5 120q90 0 166 -64.5t121 -176 t45 -244.5q0 -179 -82.5 -299.5t-208.5 -120.5q-94 0 -172 69t-121 181t-43 239zM465 1231q52 16 91 52.5t61 76.5t42.5 77.5t48.5 62t66 24.5h123l-80 -140q-108 -186 -276 -186q-16 0 -34.5 7t-30 15t-11.5 11z" />
<glyph unicode="&#xf4;" horiz-adv-x="1249" d="M106 520q0 -128 40 -234t106 -173t146.5 -103.5t164.5 -36.5q128 0 237 46t183 125t116.5 186t45.5 229q0 129 -38.5 234t-104.5 172t-151.5 103t-182.5 36q-158 0 -286.5 -74.5t-202 -208.5t-73.5 -301zM305 1231q40 9 86.5 57t80 100t70 94t60.5 42h33h16 q24 0 52.5 -27.5t56.5 -68t57 -82t63.5 -75t67.5 -40.5q0 -3 -11.5 -11t-30 -15t-34.5 -7q-78 0 -116 25.5t-86 95.5q-12 16 -23 44t-15 49l-5 20q-18 -78 -45 -113q-39 -60 -81.5 -90.5t-119.5 -30.5q-16 0 -34.5 7t-30 15t-11.5 11zM311 573q0 176 83.5 296t211.5 120 q90 0 166 -64.5t121 -176t45 -244.5q0 -179 -82.5 -299.5t-208.5 -120.5q-94 0 -172 69t-121 181t-43 239z" />
<glyph unicode="&#xf5;" horiz-adv-x="1249" d="M106 520q0 -128 40 -234t106 -173t146.5 -103.5t164.5 -36.5q128 0 237 46t183 125t116.5 186t45.5 229q0 129 -38.5 234t-104.5 172t-151.5 103t-182.5 36q-158 0 -286.5 -74.5t-202 -208.5t-73.5 -301zM279 1282q74 55 129 51q34 -2 125 -33.5t159 -35.5q100 -6 177 35 t96 128q-83 -59 -152 -55q-36 4 -130.5 34.5t-145.5 33.5q-61 4 -113.5 -9.5t-93 -51.5t-51.5 -97zM311 573q0 176 83.5 296t211.5 120q90 0 166 -64.5t121 -176t45 -244.5q0 -179 -82.5 -299.5t-208.5 -120.5q-94 0 -172 69t-121 181t-43 239z" />
<glyph unicode="&#xf6;" horiz-adv-x="1249" d="M106 520q0 -128 40 -234t106 -173t146.5 -103.5t164.5 -36.5q128 0 237 46t183 125t116.5 186t45.5 229q0 129 -38.5 234t-104.5 172t-151.5 103t-182.5 36q-158 0 -286.5 -74.5t-202 -208.5t-73.5 -301zM311 573q0 176 83.5 296t211.5 120q90 0 166 -64.5t121 -176 t45 -244.5q0 -179 -82.5 -299.5t-208.5 -120.5q-94 0 -172 69t-121 181t-43 239zM317 1313q0 46 31 79t72 33t71.5 -33t30.5 -79q0 -47 -30 -80t-72 -33t-72.5 33t-30.5 80zM694 1313q0 46 31 79t72 33t71.5 -33t30.5 -79q0 -47 -30 -80t-72 -33t-72.5 33t-30.5 80z" />
<glyph unicode="&#xf7;" d="M180 461v131q0 -8 344 -8q219 0 259 7q19 4 26 9q-6 -34 -19.5 -59t-37.5 -39.5t-44.5 -23.5t-58.5 -12.5t-59 -4t-64 -0.5h-20q-27 0 -151.5 1t-137.5 1q-29 0 -37 -2zM365 229q0 48 33.5 81.5t82.5 33.5q47 0 81 -34t34 -81q0 -49 -33.5 -82.5t-81.5 -33.5 q-49 0 -82.5 33.5t-33.5 82.5zM365 819q0 48 33.5 81.5t82.5 33.5q47 0 81 -34t34 -81q0 -49 -33.5 -83t-81.5 -34q-49 0 -82.5 33.5t-33.5 83.5z" />
<glyph unicode="&#xf8;" horiz-adv-x="1249" d="M47 74l70 -72q43 47 104 113l8 8q124 -148 322 -148q172 0 305 78t205 210.5t76 295.5q0 231 -107 369q9 9 33 31.5t32 32t18.5 25.5t7.5 29t-17 27q-10 10 -47 33q-14 -15 -29 -34t-33 -41t-28 -34q-116 101 -287 101q-252 0 -409.5 -161.5t-157.5 -416.5 q0 -187 65 -317q-49 -49 -89.5 -88.5t-41.5 -40.5zM311 584q0 177 84 294t207 117q139 0 236 -133q-225 -227 -498 -500q-29 110 -29 222zM377 270l508 514q59 -128 59 -280q0 -181 -94.5 -304.5t-214.5 -123.5q-81 0 -147.5 51.5t-110.5 142.5z" />
<glyph unicode="&#xf9;" horiz-adv-x="1263" d="M172 1057l12 26q55 23 123 23q61 0 113 -21q-10 -203 -10 -720q0 -69 18.5 -120.5t45 -79t65 -44t69.5 -21t68 -4.5q129 0 213 59.5t92 151.5q6 57 6 572q0 127 -45 178l12 26q28 21 95 21q61 0 86 -19q-19 -412 -19 -729q0 -165 -123 -274t-334 -109q-77 0 -138.5 10.5 t-116.5 36.5t-92 67t-60 105.5t-25 149.5q-10 312 -10 535q0 31 -2.5 56.5t-5 40.5t-8.5 31t-9 21t-11 17t-9 14zM377 1524l80 -140q108 -186 276 -186q16 0 34.5 7t30 15t11.5 11q-52 16 -91 52.5t-61 76.5t-42.5 77.5t-48.5 62t-66 24.5h-123z" />
<glyph unicode="&#xfa;" horiz-adv-x="1263" d="M172 1057l12 26q55 23 123 23q61 0 113 -21q-10 -203 -10 -720q0 -69 18.5 -120.5t45 -79t65 -44t69.5 -21t68 -4.5q129 0 213 59.5t92 151.5q6 57 6 572q0 127 -45 178l12 26q28 21 95 21q61 0 86 -19q-19 -412 -19 -729q0 -165 -123 -274t-334 -109q-77 0 -138.5 10.5 t-116.5 36.5t-92 67t-60 105.5t-25 149.5q-10 312 -10 535q0 31 -2.5 56.5t-5 40.5t-8.5 31t-9 21t-11 17t-9 14zM508 1231q52 16 91 52.5t61 76.5t42.5 77.5t48.5 62t66 24.5h123l-80 -140q-108 -186 -276 -186q-16 0 -34.5 7t-30 15t-11.5 11z" />
<glyph unicode="&#xfb;" horiz-adv-x="1263" d="M172 1057l12 26q55 23 123 23q61 0 113 -21q-10 -203 -10 -720q0 -69 18.5 -120.5t45 -79t65 -44t69.5 -21t68 -4.5q129 0 213 59.5t92 151.5q6 57 6 572q0 127 -45 178l12 26q28 21 95 21q61 0 86 -19q-19 -412 -19 -729q0 -165 -123 -274t-334 -109q-77 0 -138.5 10.5 t-116.5 36.5t-92 67t-60 105.5t-25 149.5q-10 312 -10 535q0 31 -2.5 56.5t-5 40.5t-8.5 31t-9 21t-11 17t-9 14zM322 1231q33 7 69 40.5t66.5 75t59 82t55 68t46.5 27.5h33h17q24 0 52.5 -27.5t56.5 -68t57 -82t63.5 -75t67.5 -40.5q0 -3 -11.5 -11t-30 -15t-34.5 -7 q-42 0 -71 6.5t-52.5 24t-39 36t-40.5 54.5q-12 16 -23 44t-15 49l-5 20q-18 -78 -45 -113q-39 -60 -81.5 -90.5t-119.5 -30.5q-16 0 -34.5 7t-29.5 15t-11 11z" />
<glyph unicode="&#xfc;" horiz-adv-x="1263" d="M172 1057l12 26q55 23 123 23q61 0 113 -21q-10 -203 -10 -720q0 -69 18.5 -120.5t45 -79t65 -44t69.5 -21t68 -4.5q129 0 213 59.5t92 151.5q6 57 6 572q0 127 -45 178l12 26q28 21 95 21q61 0 86 -19q-19 -412 -19 -729q0 -165 -123 -274t-334 -109q-77 0 -138.5 10.5 t-116.5 36.5t-92 67t-60 105.5t-25 149.5q-10 312 -10 535q0 31 -2.5 56.5t-5 40.5t-8.5 31t-9 21t-11 17t-9 14zM375 1313q0 46 30.5 79t71.5 33t72 -33t31 -79q0 -47 -30.5 -80t-72.5 -33t-72 33t-30 80zM752 1313q0 46 30.5 79t71.5 33t71.5 -33t30.5 -79q0 -47 -30 -80 t-72 -33t-72 33t-30 80z" />
<glyph unicode="&#xff;" horiz-adv-x="892" d="M-8 1057l12 26q55 25 125 25q86 0 117 -31q38 -89 124 -242.5t136 -228.5q11 29 31 62l147 239q22 38 24 76t-20 74l12 26q55 25 101 25q54 0 106 -25q0 -28 -37 -105.5t-71 -123.5l-217 -326q0 -28 -1 -112.5t-1 -132.5q0 -195 14 -283h-217v27q0 67 1 160t1 120 q0 158 -2 187q-14 14 -37 51l-170 274q-21 35 -49.5 84.5t-39 66t-27.5 39.5t-30 32t-32 16zM178 1313q0 46 31 79t72 33t71.5 -33t30.5 -79q0 -47 -30 -80t-72 -33t-72.5 33t-30.5 80zM555 1313q0 46 30.5 79t71.5 33t72 -33t31 -79q0 -47 -30.5 -80t-72.5 -33t-72 33 t-30 80z" />
<glyph unicode="&#x152;" horiz-adv-x="1730" d="M102 641q4 150 48.5 279t123 224t194.5 149.5t255 54.5h479l350 6q23 -24 33.5 -75.5t8 -96t-14.5 -56.5h-39q-9 46 -69 78t-146 35l-174 6q-14 -243 -14 -500h321q28 0 47 6.5t24 13.5l5 7q4 -16 4 -41q0 -24 -7 -42.5t-16 -30t-27 -20t-30.5 -12.5t-36 -6t-34 -2h-33.5 q-2 0 -50.5 1t-91 2t-77.5 0q-2 -202 6 -480q0 -4 4 -12h389q28 0 47 6.5t24 13.5l5 7q4 -16 4 -41q0 -28 -8 -48.5t-24.5 -32.5t-32 -19.5t-40.5 -10.5t-39.5 -3.5t-39.5 -0.5h-699q-99 0 -190.5 24t-172 75.5t-140 125.5t-93.5 181t-33 235zM326 739q-4 -175 63.5 -320.5 t183 -227.5t252.5 -82h105v30v951q0 87 -15 149h-217q-68 0 -134 -36t-118.5 -99.5t-85.5 -159t-34 -205.5z" />
<glyph unicode="&#x153;" horiz-adv-x="1536" d="M109 522q4 120 42.5 222.5t106 178.5t167.5 119t220 43h434l303 7q20 -19 29 -63.5t6.5 -83.5t-12.5 -48h-33q-9 37 -61 62t-125 28l-139 4q-25 0 -37 -2q0 -102 -2 -176q-2 -76 -9 -207h281q23 0 38.5 6t19.5 12l5 5q5 -15 5 -33q0 -100 -160 -100q-142 0 -189 -2 q-3 -197 7 -371v-10h337q24 0 40.5 5.5t20.5 11.5l5 5q2 -15 2 -33q0 -102 -158 -102h-602q-107 0 -203.5 33t-173.5 95.5t-121.5 164.5t-43.5 229zM311 592q-4 -215 115 -355.5t307 -140.5h90v25v745q0 74 -12 115h-176q-127 0 -224 -107.5t-100 -281.5z" />
<glyph unicode="&#x178;" horiz-adv-x="1005" d="M10 1313l15 35q61 28 143 28q87 0 121 -37q46 -114 144.5 -304t152.5 -277q12 37 35 76l170 301q54 96 2 178l14 35q61 28 115 28q50 0 108 -28q0 -35 -40 -128t-79 -153l-252 -405q0 -36 -1 -142t-1 -168q0 -239 17 -352h-223v33q0 84 1 200.5t1 149.5q0 198 -2 233 q-15 15 -43 64l-197 344q-27 47 -58 105t-43 79.5t-30 48t-33 37t-37 19.5zM201 1599q0 46 30.5 79.5t71.5 33.5t72 -33.5t31 -79.5q0 -47 -30.5 -79.5t-72.5 -32.5t-72 32.5t-30 79.5zM680 1599q0 46 30.5 79.5t71.5 33.5t72 -33.5t31 -79.5q0 -47 -30.5 -79.5t-72.5 -32.5 t-72 32.5t-30 79.5z" />
<glyph unicode="&#x2c6;" horiz-adv-x="823" d="M88 1231q40 9 86.5 57t80 100t70 94t60.5 42h33h16q24 0 52.5 -27.5t56.5 -68t57 -82t63.5 -75t67.5 -40.5q0 -3 -11.5 -11t-30 -15t-34.5 -7q-78 0 -116 25.5t-86 95.5q-12 16 -22.5 44t-15.5 49l-5 20q-18 -78 -45 -113q-39 -60 -81.5 -90.5t-119.5 -30.5 q-16 0 -34.5 7t-30 15t-11.5 11z" />
<glyph unicode="&#x2dc;" horiz-adv-x="778" d="M51 1282q74 55 129 51q34 -2 125.5 -33.5t159.5 -35.5q99 -6 176 35t96 128q-83 -59 -151 -55q-36 4 -131 34.5t-146 33.5q-61 4 -113.5 -9.5t-93 -51.5t-51.5 -97z" />
<glyph unicode="&#x2000;" horiz-adv-x="910" />
<glyph unicode="&#x2001;" horiz-adv-x="1821" />
<glyph unicode="&#x2002;" horiz-adv-x="910" />
<glyph unicode="&#x2003;" horiz-adv-x="1821" />
<glyph unicode="&#x2004;" horiz-adv-x="607" />
<glyph unicode="&#x2005;" horiz-adv-x="455" />
<glyph unicode="&#x2006;" horiz-adv-x="303" />
<glyph unicode="&#x2007;" horiz-adv-x="303" />
<glyph unicode="&#x2008;" horiz-adv-x="227" />
<glyph unicode="&#x2009;" horiz-adv-x="364" />
<glyph unicode="&#x200a;" horiz-adv-x="101" />
<glyph unicode="&#x2010;" horiz-adv-x="618" d="M59 436v131q0 -8 222 -8q218 0 258 7q18 4 26 9q-6 -34 -19.5 -59t-37.5 -39.5t-44.5 -23.5t-58.5 -12.5t-59 -4t-64 -0.5h-20q-27 0 -90 1t-76 1q-29 0 -37 -2z" />
<glyph unicode="&#x2011;" horiz-adv-x="618" d="M59 436v131q0 -8 222 -8q218 0 258 7q18 4 26 9q-6 -34 -19.5 -59t-37.5 -39.5t-44.5 -23.5t-58.5 -12.5t-59 -4t-64 -0.5h-20q-27 0 -90 1t-76 1q-29 0 -37 -2z" />
<glyph unicode="&#x2012;" horiz-adv-x="618" d="M59 436v131q0 -8 222 -8q218 0 258 7q18 4 26 9q-6 -34 -19.5 -59t-37.5 -39.5t-44.5 -23.5t-58.5 -12.5t-59 -4t-64 -0.5h-20q-27 0 -90 1t-76 1q-29 0 -37 -2z" />
<glyph unicode="&#x2013;" horiz-adv-x="925" d="M59 438v131q0 -8 529 -8q224 0 265 10q13 3 19 7q-6 -34 -19.5 -59t-38 -40t-45 -24t-58.5 -12.5t-59.5 -4t-65.5 -0.5h-9h-8q-27 0 -243.5 1t-229.5 1q-29 0 -37 -2z" />
<glyph unicode="&#x2014;" horiz-adv-x="1390" d="M53 438v131q0 -8 1000 -8q224 0 265 10q13 3 19 7q-6 -34 -19.5 -59t-38 -40t-45 -24t-58.5 -12.5t-59.5 -4t-65.5 -0.5h-17q-27 0 -479 1t-465 1q-29 0 -37 -2z" />
<glyph unicode="&#x2018;" horiz-adv-x="452" d="M82 1186q0 80 68.5 178t191.5 178l37 -49q-135 -129 -135 -225q0 -52 16 -71t43 -19q6 -49 -26.5 -86t-77.5 -37q-58 0 -87.5 34.5t-29.5 96.5z" />
<glyph unicode="&#x2019;" horiz-adv-x="452" d="M70 1104q135 129 135 225q0 52 -16 71t-44 19q-6 49 27 86t78 37q58 0 87.5 -34t29.5 -97q0 -79 -69 -177.5t-192 -178.5z" />
<glyph unicode="&#x201a;" horiz-adv-x="452" d="M70 -246q135 129 135 226q0 52 -16 71t-44 19q-6 49 27 86t78 37q58 0 87.5 -34.5t29.5 -97.5q0 -79 -69 -177.5t-192 -178.5z" />
<glyph unicode="&#x201c;" horiz-adv-x="813" d="M84 1186q0 80 68.5 178t191.5 178l37 -49q-135 -129 -135 -225q0 -52 16 -71t43 -19q6 -49 -26.5 -86t-77.5 -37q-58 0 -87.5 34.5t-29.5 96.5zM442 1186q0 80 68.5 178t191.5 178l37 -49q-135 -129 -135 -225q0 -52 16 -71t44 -19q6 -49 -27 -86t-78 -37 q-58 0 -87.5 34.5t-29.5 96.5z" />
<glyph unicode="&#x201d;" horiz-adv-x="813" d="M70 1104q135 129 135 225q0 52 -16 71t-44 19q-6 49 27 86t78 37q58 0 87.5 -34t29.5 -97q0 -79 -69 -177.5t-192 -178.5zM428 1104q135 129 135 225q0 52 -16 71t-43 19q-6 49 26.5 86t77.5 37q58 0 87.5 -34t29.5 -97q0 -80 -68.5 -178t-191.5 -178z" />
<glyph unicode="&#x201e;" horiz-adv-x="813" d="M74 -246q135 129 135 226q0 52 -16 71t-43 19q-6 49 26.5 86t77.5 37q58 0 87.5 -34.5t29.5 -97.5q0 -80 -68.5 -178t-191.5 -178zM432 -246q135 129 135 226q0 52 -16 71t-43 19q-6 49 26.5 86t77.5 37q58 0 87.5 -34.5t29.5 -97.5q0 -80 -68.5 -178t-191.5 -178z" />
<glyph unicode="&#x2022;" horiz-adv-x="868" d="M178 506q0 104 74 178t180 74q104 0 179 -74t75 -178q0 -105 -74.5 -179.5t-179.5 -74.5q-106 0 -180 74t-74 180z" />
<glyph unicode="&#x2026;" horiz-adv-x="1357" d="M158 84q0 44 32 76.5t78 32.5q44 0 76.5 -32.5t32.5 -76.5q0 -46 -32.5 -78.5t-76.5 -32.5q-46 0 -78 32.5t-32 78.5zM578 84q0 44 32 76.5t78 32.5q44 0 76.5 -32.5t32.5 -76.5q0 -46 -32.5 -78.5t-76.5 -32.5q-46 0 -78 32.5t-32 78.5zM987 84q0 44 32.5 76.5 t78.5 32.5q44 0 76 -32.5t32 -76.5q0 -46 -32 -78.5t-76 -32.5q-46 0 -78.5 32.5t-32.5 78.5z" />
<glyph unicode="&#x202f;" horiz-adv-x="364" />
<glyph unicode="&#x2039;" horiz-adv-x="755" d="M80 506q23 21 41 41l268 319q46 56 90 86t78 32.5t58 -5t44 -23.5q-18 -6 -42 -27t-39 -39l-15 -18l-227 -303q-11 -16 -28 -31.5t-28 -23.5l-12 -8q43 -29 68 -64l227 -303q55 -70 96 -84q-20 -16 -44 -23.5t-58 -5t-78 32.5t-90 86l-268 320z" />
<glyph unicode="&#x203a;" horiz-adv-x="755" d="M82 55q20 -16 44 -23.5t58 -5t78 32.5t90 86l269 320l41 41q-23 21 -41 41l-269 319q-46 56 -90 86t-78 32.5t-58 -5t-44 -23.5q18 -6 42 -27t39 -39l15 -18l228 -303q11 -16 28 -31.5t28 -23.5l11 -8q-42 -29 -67 -64l-228 -303q-55 -70 -96 -84z" />
<glyph unicode="&#x205f;" horiz-adv-x="455" />
<glyph unicode="&#x20ac;" horiz-adv-x="1183" d="M25 731l24 131q0 -6 127 -6q56 236 227.5 376t413.5 140q123 0 205 -31t102.5 -84.5t-26.5 -126.5q-3 39 -90.5 79t-214.5 40q-174 0 -297 -112.5t-160 -282.5h385q219 0 259 7q19 4 26 9q-5 -29 -17.5 -51.5t-26 -37t-39 -25t-43 -15.5t-52 -7.5t-51.5 -2.5h-55h-20 h-378q0 -72 10 -164h264h1h1h1h1h1h1h1h1h1h1h1h1h1h1h1h1h1h1h1h1h2q216 0 252 12q7 2 11 5q-6 -34 -19.5 -59t-38 -40t-45 -24t-58.5 -12.5t-59.5 -4t-65.5 -0.5h-9h-8h-222q102 -354 461 -354q30 0 74.5 8.5t108.5 37.5t106 73q3 -118 -92.5 -178t-259.5 -60 q-236 0 -386.5 127t-197.5 348h-106q-29 0 -37 -2l20 131q28 -4 105 -4q-2 25 -2 74q0 59 4 88h-95q-28 0 -36 -2z" />
<glyph unicode="&#x2122;" horiz-adv-x="1642" d="M72 1292l4 62q70 0 133 108h82l-17 -108h129q26 0 44.5 6.5t24.5 13.5l5 6q17 -54 -13 -90.5t-93 -36.5q-4 0 -46 1.5t-51 0.5q0 -66 -1 -152t-1 -138v-44.5t2 -36.5t6.5 -35t12.5 -23.5t21 -20t32 -8.5q38 -4 85.5 13t57.5 32q13 -66 -33 -120t-132 -54 q-110 0 -148.5 53t-38.5 164q0 44 4 137.5t4 136.5q0 78 -12 92q-12 16 -27 26t-22.5 12.5t-11.5 2.5zM551 1292v41q67 37 129 37q50 0 65.5 -30.5t10.5 -86.5q96 121 235 121q61 0 104.5 -34t59.5 -87q92 121 236 121q71 0 118.5 -49.5t49.5 -116.5v-88q0 -22 -1.5 -81 t-1.5 -91q0 -193 17 -262h-150q-7 33 -4 195.5t2 195.5q3 93 -18 132.5t-78 39.5q-94 0 -164 -65q0 -13 -2 -86t-2 -123q0 -203 19 -289h-150q-4 59 -4.5 122t1 147t1.5 122q0 94 -20.5 133t-75.5 39q-102 0 -176 -84q0 -233 4 -370q0 -22 12 -109h-156l9 459q1 40 -6 70 t-17.5 44t-21 22t-18.5 9z" />
<glyph unicode="&#xe000;" horiz-adv-x="1105" d="M0 0v1106h1106v-1106h-1106z" />
<glyph unicode="&#xfb01;" horiz-adv-x="1488" d="M164 1057l12 26h268l304 7q19 -19 27.5 -63.5t6 -83.5t-11.5 -48h-33q-9 37 -61 62t-125 28l-141 4q-13 -266 -13 -387h267q24 0 40.5 6t20.5 12l4 5q4 -21 4 -39q0 -26 -11.5 -45t-27 -29t-39.5 -15.5t-41.5 -6.5t-40.5 -1h-176q-3 -195 4 -376q0 -64 15 -113h-207 l2 111v763q0 24 -1.5 44t-3 34.5t-5.5 28.5t-6 21.5t-7.5 18t-7.5 13.5t-8.5 12.5t-7.5 10.5zM1032 1059l12 26q62 23 130 23q56 0 106 -21q-16 -368 -16 -655q0 -393 18 -432h-207q4 106 4 879q0 27 -1.5 48.5t-5 38.5t-5.5 28t-8 23t-8.5 16t-10 14t-8.5 12z" />
<glyph unicode="&#xfb02;" horiz-adv-x="1732" d="M164 1057l12 26h268l304 7q19 -19 27.5 -63.5t6 -83.5t-11.5 -48h-33q-9 37 -61 62t-125 28l-141 4q-13 -266 -13 -387h267q24 0 40.5 6t20.5 12l4 5q4 -21 4 -39q0 -26 -11.5 -45t-27 -29t-39.5 -15.5t-41.5 -6.5t-40.5 -1h-176q-3 -195 4 -376q0 -64 15 -113h-207 l2 111v763q0 24 -1.5 44t-3 34.5t-5.5 28.5t-6 21.5t-7.5 18t-7.5 13.5t-8.5 12.5t-7.5 10.5zM1034 1057l13 26q61 23 129 23q56 0 106 -21q-16 -368 -16 -653q0 -240 4 -330h192q76 0 126.5 24t58.5 62h34q19 -19 12.5 -91t-34.5 -97h-582q4 106 4 877q0 27 -1.5 48.5 t-5 38.5t-5.5 28t-8 23t-8.5 16t-10 14t-8.5 12z" />
<glyph unicode="&#xfb03;" horiz-adv-x="1658" />
</font>
</defs>
</svg>
