<?xml version="1.0" standalone="no"?>
<!DOCTYPE svg PUBLIC "-//W3C//DTD SVG 1.1//EN" "http://www.w3.org/Graphics/SVG/1.1/DTD/svg11.dtd" >
<svg xmlns="http://www.w3.org/2000/svg">
<metadata></metadata>
<defs>
<font id="fontin_sans_crregular" horiz-adv-x="1024" >
<font-face units-per-em="2048" ascent="1548" descent="-500" />
<missing-glyph horiz-adv-x="552" />
<glyph unicode="&#xfb01;" horiz-adv-x="1232" d="M82 868v140h125v129q0 81 29 150.5t74.5 115.5t102.5 79t112.5 47.5t105.5 14.5q71 0 136.5 -13.5t108.5 -33t75.5 -38.5t47.5 -33l15 -13l-70 -162q-5 6 -15.5 15.5t-42 34.5t-64 44t-80 34.5t-91.5 15.5q-120 0 -196 -72t-76 -170v-145h461l198 22v-876l21 -154h-193 v821l-8 47h-479v-657l20 -211h-192v868h-125z" />
<glyph unicode="&#xfb02;" horiz-adv-x="1232" d="M82 868v140h125v129q0 81 29 150.5t74.5 115.5t102.5 79t112.5 47.5t105.5 14.5q106 0 200 -33l207 -73v-1284l21 -154h-193v1325q-99 70 -215 70q-120 0 -196 -72t-76 -170v-145h287l-62 -140h-225v-657l20 -211h-192v868h-125z" />
<glyph unicode="&#xfb03;" horiz-adv-x="1904" d="M82 868v140h125v129q0 81 29 150.5t74.5 115.5t102.5 79t112.5 47.5t105.5 14.5q71 0 135.5 -13t110 -34t72.5 -37t48 -33q64 57 144 87t151 30t136.5 -13.5t108.5 -33t75.5 -38.5t47.5 -33l15 -13l-69 -162q-5 6 -15.5 15.5t-42 34.5t-64 44t-80 34.5t-91.5 15.5 q-120 0 -196.5 -72t-76.5 -170v-145h471l199 24v-878l21 -154h-193v821l-8 47h-490v-657l21 -211h-193v868h-489v-657l20 -211h-192v868h-125zM379 1008h489v129q0 85 31 155q-133 103 -248 103q-120 0 -196 -72t-76 -170v-145z" />
<glyph unicode="&#xfb04;" horiz-adv-x="1904" d="M82 868v140h125v129q0 81 29 150.5t74.5 115.5t102.5 79t112.5 47.5t105.5 14.5q212 0 358 -110q63 54 140.5 82t146.5 28q133 0 227 -33l207 -73v-1284l21 -154h-193v1325q-42 30 -110.5 50t-131.5 20q-120 0 -196 -72t-76 -170v-145h287l-62 -140h-225v-657l20 -211 h-192v868h-473v-657l20 -211h-192v868h-125zM379 1008h473v129q0 91 35 163q-117 95 -236 95q-120 0 -196 -72t-76 -170v-145z" />
<glyph horiz-adv-x="2048" />
<glyph horiz-adv-x="2048" />
<glyph unicode="&#xd;" horiz-adv-x="2048" />
<glyph unicode=" "  horiz-adv-x="552" />
<glyph unicode="&#x09;" horiz-adv-x="552" />
<glyph unicode="&#xa0;" horiz-adv-x="552" />
<glyph unicode="!" horiz-adv-x="540" d="M158 102q0 51 36 88t87 37t86.5 -37t35.5 -88q0 -54 -35.5 -91.5t-86.5 -37.5t-87 37.5t-36 91.5zM158 1522l221 26l-31 -1159l-137 -20l-27 970z" />
<glyph unicode="&#x22;" horiz-adv-x="802" d="M145 1341l185 33l-2 -500l-150 -2l4 240zM473 1341l184 33l-2 -500l-149 -2l4 240z" />
<glyph unicode="#" horiz-adv-x="1441" d="M59 377v131h312l41 381h-295v131h309l35 328h155l-34 -328h299l34 328h158l-35 -328h308l-17 -131h-303l-41 -381h305l-16 -131h-303l-39 -377h-158l39 377h-299l-39 -377h-158l39 377h-297zM528 508h299l41 381h-299z" />
<glyph unicode="$" horiz-adv-x="983" d="M113 123l18 168q5 -6 15.5 -16.5t43.5 -37t68 -48t87 -41.5t104 -25v483q-40 22 -54.5 30t-51.5 30t-52.5 33.5t-45.5 35t-44 40.5t-34 43t-29 50.5t-16 55t-7 63.5q0 144 93 251.5t241 129.5v178h106v-176q160 -9 293 -94l-53 -160q-12 9 -34 23t-85 41t-121 34v-440 q138 -73 194 -118q141 -115 142 -285q0 -160 -90.5 -264.5t-245.5 -126.5v-173h-106v168q-62 3 -120 19t-95.5 37.5t-66 42t-41.5 34.5zM307 1042q0 -67 37 -116.5t105 -91.5v378q-62 -15 -102 -58.5t-40 -111.5zM555 131q64 21 102.5 76t38.5 137q0 60 -37 107t-104 92 v-412z" />
<glyph unicode="%" horiz-adv-x="1634" d="M135 1038q0 125 92.5 216.5t214.5 91.5q125 0 219.5 -91.5t94.5 -216.5t-94 -216t-220 -91q-123 0 -215 91t-92 216zM256 1042q0 -74 54.5 -136t133.5 -62q86 0 138.5 61t52.5 137q0 74 -59 129.5t-132 55.5q-76 0 -132 -55t-56 -130zM285 0l934 1380l135 -55l-903 -1325 h-166zM903 281q0 125 92 216t215 91q126 0 220 -91t94 -216t-94.5 -216.5t-219.5 -91.5q-122 0 -214.5 91.5t-92.5 216.5zM1024 285q0 -74 55 -136.5t133 -62.5q86 0 138.5 61.5t52.5 137.5q0 74 -59 129t-132 55q-77 0 -132.5 -54.5t-55.5 -129.5z" />
<glyph unicode="&#x26;" horiz-adv-x="1554" d="M137 371q0 64 22 124t65.5 114.5t88.5 98t109 93.5q-172 258 -172 405q0 156 103 248t282 92q156 0 247 -78t91 -206q0 -52 -21 -104.5t-49 -92.5t-80 -90.5t-89.5 -81.5t-102.5 -82l-8 -6q162 -215 385 -416q43 85 65.5 181t22.5 272q0 44 -4 166h409l-41 -142h-219 q2 -27 2 -78q0 -286 -127 -487q232 -186 387 -223l-119 -123q-157 53 -364 213q-80 -93 -197.5 -144t-261.5 -51q-183 0 -303.5 106.5t-120.5 291.5zM319 416q0 -55 16 -105.5t50 -96t97 -72.5t147 -27q77 0 152.5 37.5t133.5 101.5q-231 199 -417 444q-90 -78 -134.5 -143 t-44.5 -139zM422 1233q0 -126 133 -332q122 94 186 169t64 157q0 40 -18.5 80.5t-64.5 73t-110 32.5q-85 0 -137.5 -49.5t-52.5 -130.5z" />
<glyph unicode="'" horiz-adv-x="475" d="M145 1341l185 33l-2 -500l-150 -2l4 240z" />
<glyph unicode="(" horiz-adv-x="675" d="M135 485q0 187 47.5 374.5t131.5 331.5t184 200l120 -43q-13 -6 -38.5 -33.5t-61.5 -76.5t-72 -124.5t-67 -165t-50.5 -211.5t-19.5 -252q0 -154 28 -303t68 -254t85 -189t78.5 -127t49.5 -50l-120 -43q-99 56 -184 216t-132 361.5t-47 388.5z" />
<glyph unicode=")" horiz-adv-x="675" d="M57 -438q16 7 49.5 50t79 127t85.5 189t68 254t28 303q0 130 -19.5 252t-51 211.5t-67.5 165t-72 124.5t-61.5 76.5t-38.5 33.5l121 43q100 -56 184 -200t131.5 -331.5t47.5 -374.5t-47 -388.5t-132 -361.5t-184 -216z" />
<glyph unicode="*" horiz-adv-x="823" d="M8 1124l62 127l237 -8l-151 262l131 11l121 -213l147 260l74 -111l-123 -209l301 8l-62 -127l-237 9l151 -263l-131 -10l-120 211l-148 -258l-74 111l121 209z" />
<glyph unicode="+" horiz-adv-x="964" d="M119 442v152h293v305l143 -39v-266h305l-41 -152h-264v-299h-143v299h-293z" />
<glyph unicode="," horiz-adv-x="552" d="M123 -217q42 40 78.5 99.5t36.5 105.5q0 39 -16 58.5t-58 37.5v18q0 55 34 92t89 37q51 0 87 -38t36 -109q0 -89 -55 -197t-158 -176z" />
<glyph unicode="-" horiz-adv-x="618" d="M63 430v152h506l-41 -152h-465z" />
<glyph unicode="." horiz-adv-x="552" d="M154 102q0 51 35.5 88t86.5 37t87 -37t36 -88q0 -54 -36 -91.5t-87 -37.5t-86.5 37.5t-35.5 91.5z" />
<glyph unicode="/" horiz-adv-x="595" d="M-55 -500l436 1846h151l-442 -1846h-145z" />
<glyph unicode="0" d="M86 592q0 131 26 240t77.5 193t137 131.5t197.5 47.5q101 0 177.5 -38t120.5 -97t71.5 -143.5t37 -164t9.5 -171.5q0 -103 -15 -192.5t-50 -168.5t-87.5 -135t-131 -88.5t-177.5 -32.5q-84 0 -153.5 35.5t-124 107.5t-85 193.5t-30.5 282.5zM274 614q0 -116 10.5 -203.5 t35.5 -159.5t71 -109.5t111 -37.5q117 0 185.5 129.5t68.5 348.5q0 487 -244 487q-120 0 -179 -119t-59 -336z" />
<glyph unicode="1" horiz-adv-x="819" d="M88 1061l436 145v-1071h254l-20 -135h-658v135h252v866l-213 -65z" />
<glyph unicode="2" d="M158 90q19 24 39 47q58 66 98.5 112.5t115 142t121 169t84 160.5t37.5 149q0 97 -55 150t-131 53q-62 0 -125.5 -32.5t-110.5 -86.5l-73 144q61 52 151 82t187 30q68 0 129.5 -20t111 -57.5t78.5 -98.5t29 -137q0 -73 -25 -153t-65 -150t-88 -137t-96.5 -120t-88.5 -93.5 t-65 -61.5l-25 -22h522l-20 -160h-715z" />
<glyph unicode="3" d="M127 -68q29 -4 90 -4q83 0 161.5 18.5t149.5 56t114.5 106t43.5 157.5q0 78 -48 141t-119.5 96t-149.5 36l26 120q102 47 167 110t65 140q0 71 -51.5 116.5t-122.5 45.5q-126 0 -234 -117l-74 144q58 46 147 77t179 31q145 0 245.5 -71.5t100.5 -198.5q0 -182 -235 -297 q138 -18 216.5 -122t78.5 -232q0 -150 -85 -263.5t-228 -172t-320 -58.5q-49 0 -74 2z" />
<glyph unicode="4" d="M61 285l562 923l153 -45v-829h201l-41 -160h-160v-225l21 -154h-193v379h-522zM258 334h350v516l10 119l-57 -129l-266 -455z" />
<glyph unicode="5" d="M150 -68q29 -4 94 -4q85 0 164.5 21t146 62t107 108.5t40.5 152.5q0 142 -109.5 243t-283.5 101l-73 -4l24 566h612l-41 -160h-428l-10 -268q92 0 180 -31t158 -87t113 -142t43 -187q0 -105 -36 -191.5t-97.5 -145t-144 -98.5t-173.5 -58.5t-188 -18.5q-37 0 -55 2z" />
<glyph unicode="6" d="M82 618q0 191 42 337.5t117 236t172.5 134t213.5 44.5q81 0 164 -30t131 -87l-72 -139q-31 48 -97.5 81.5t-136.5 33.5q-134 0 -229.5 -118t-116.5 -347q53 34 137.5 66t176.5 32q71 0 135 -24.5t114.5 -72t80.5 -124.5t30 -174q0 -100 -29 -189t-82 -157t-136 -108 t-185 -40q-110 0 -195 54t-135 146.5t-75 205t-25 239.5zM266 629q1 -100 15 -185.5t45 -161.5t87.5 -119.5t133.5 -43.5q100 0 155.5 88t55.5 203q0 151 -73 229t-187 78q-68 0 -131.5 -29.5t-100.5 -58.5z" />
<glyph unicode="7" d="M80 1178h864l31 -48l-598 -1357l-166 30l530 1215h-600z" />
<glyph unicode="8" d="M104 291q0 55 16.5 106t42 91t66 80.5t77 69.5t87.5 64q-114 89 -174.5 168t-60.5 172q0 143 103 235.5t276 92.5q155 0 248.5 -77.5t93.5 -194.5q0 -59 -19.5 -112t-56.5 -98t-75.5 -79.5t-90.5 -71.5q69 -53 110 -88t89 -84.5t71 -98t23 -97.5q0 -173 -127 -284.5 t-320 -111.5q-52 0 -102.5 10t-101.5 34t-89 59t-62 90.5t-24 124.5zM283 352q0 -110 59.5 -170.5t159.5 -60.5q95 0 172.5 57.5t77.5 138.5q0 39 -20 78t-65 83.5t-79.5 73.5t-102.5 81q-98 -67 -150 -132.5t-52 -148.5zM328 1075q0 -62 55 -125t158 -141 q78 58 119.5 113.5t41.5 119.5q0 83 -45.5 141t-142.5 58q-84 0 -135 -45t-51 -121z" />
<glyph unicode="9" d="M74 711q0 134 48.5 244.5t148.5 179.5t235 69q110 0 195 -54t135 -146.5t75 -205t25 -239.5q0 -191 -42.5 -343.5t-116.5 -249.5t-172.5 -148t-213.5 -51q-82 0 -164.5 29.5t-130.5 86.5l72 140q32 -48 97.5 -81.5t135.5 -33.5q130 0 228 136.5t119 369.5 q-31 -20 -70.5 -39.5t-109.5 -39.5t-134 -20q-150 0 -255 103t-105 293zM260 768q0 -151 73 -229t187 -78q68 0 131.5 29.5t100.5 58.5q-1 100 -15 185.5t-45 161.5t-87.5 119.5t-133.5 43.5q-100 0 -155.5 -88t-55.5 -203z" />
<glyph unicode=":" horiz-adv-x="528" d="M150 102q0 51 35.5 88t86.5 37t87 -37t36 -88q0 -54 -36 -91.5t-87 -37.5t-86.5 37.5t-35.5 91.5zM150 668q0 51 35.5 88t86.5 37t87 -37t36 -88q0 -54 -36 -91.5t-87 -37.5t-86.5 37.5t-35.5 91.5z" />
<glyph unicode=";" horiz-adv-x="528" d="M104 -217q42 40 78.5 99.5t36.5 105.5q0 39 -16 58.5t-58 37.5v18q0 55 34 92t89 37q51 0 87 -38t36 -109q0 -89 -55 -197t-158 -176zM150 668q0 51 35.5 88t86.5 37t87 -37t36 -88q0 -54 -36 -91.5t-87 -37.5t-86.5 37.5t-35.5 91.5z" />
<glyph unicode="&#x3c;" horiz-adv-x="755" d="M82 506l498 469l79 -131l-354 -340l354 -336l-79 -131z" />
<glyph unicode="=" horiz-adv-x="983" d="M119 264v152h729l-41 -152h-688zM119 602v152h749l-41 -152h-708z" />
<glyph unicode="&#x3e;" horiz-adv-x="755" d="M84 168l354 336l-354 340l80 131l498 -469l-498 -469z" />
<glyph unicode="?" horiz-adv-x="878" d="M106 1491q121 59 275 59q185 0 300.5 -95t115.5 -247q0 -74 -23.5 -143t-60.5 -122.5t-82 -103.5t-90 -96t-82 -90.5t-60.5 -96t-23.5 -103.5q0 -13 4.5 -38t8.5 -44l5 -19l-164 54q-8 46 -8 69q0 64 21 123.5t54 106t73 91.5t80.5 89t73.5 88t54 98.5t21 112.5 q0 83 -56.5 139.5t-160.5 56.5q-40 0 -90.5 -13t-82.5 -26t-32 -16zM205 102q0 51 38.5 88t92.5 37t92.5 -37t38.5 -88q0 -54 -38.5 -91.5t-92.5 -37.5t-92.5 37.5t-38.5 91.5z" />
<glyph unicode="@" horiz-adv-x="1847" d="M123 451q0 137 37.5 268.5t112 245t177.5 199.5t242.5 135t298.5 49q203 0 372.5 -92.5t268.5 -257.5t99 -367q0 -101 -21 -197t-64 -180.5t-103.5 -147.5t-146.5 -100t-186 -37q-19 0 -65 4q-23 24 -39 71.5t-19 94.5q-1 0 -14.5 -16t-37 -39.5t-54 -46.5t-74 -39 t-88.5 -16q-130 0 -225.5 119.5t-95.5 297.5q0 140 49 260.5t131 202t191 128t227 46.5q77 0 176 -30l-27 -154v-504q0 -105 8 -166t33 -82q82 1 149.5 70t103.5 178t36 230q0 185 -68.5 328t-209 228t-334.5 85q-143 0 -272 -67t-217.5 -175t-140.5 -245.5t-52 -276.5 q0 -100 29 -198.5t86 -186t135 -156t184 -111t225 -47.5l-104 -143q-134 17 -250 72.5t-200 137t-144 184t-89.5 215.5t-29.5 229zM680 416q0 -109 55.5 -189t138.5 -80q107 0 197 93l-2 657q-9 0 -27 -2t-56.5 -13t-76.5 -29.5t-80.5 -55t-74.5 -85t-53 -125.5t-21 -171z " />
<glyph unicode="A" horiz-adv-x="1169" d="M-4 0l520 1348l125 26l418 -1149l102 -225h-223l-129 352h-502l-133 -352h-178zM362 508h396l-170 471l-21 80l-24 -82z" />
<glyph unicode="B" horiz-adv-x="1144" d="M203 1348l323 10h26q178 0 292 -78q122 -84 121 -242q0 -126 -154 -280q54 -25 93 -52t72 -67t49.5 -95t16.5 -126q0 -86 -27 -158.5t-84 -132t-157 -93.5t-235 -34h-310v1159zM414 147h149q79 0 136.5 21.5t88.5 58.5t45.5 79.5t14.5 92.5q0 136 -78.5 195t-239.5 59 h-116v-506zM414 805h147q22 0 45 -1.5t40.5 -3.5t32 -4t23 -3.5t9.5 -1.5q77 103 77 206q0 108 -69 159.5t-217 51.5q-26 0 -88 -4v-399z" />
<glyph unicode="C" horiz-adv-x="1263" d="M92 645q0 154 51.5 290t139 231.5t207.5 150.5t253 55q248 0 431 -168l-95 -139q-150 156 -344 156q-128 0 -231.5 -79.5t-159 -206t-55.5 -269.5q0 -120 40 -222.5t105 -169.5t147.5 -105t168.5 -38q52 0 112 17.5t108.5 43t89.5 51t64 43.5l23 17l45 -151 q-8 -7 -23 -19t-63.5 -43t-101 -54.5t-131 -43t-156.5 -19.5q-121 0 -232 44.5t-199 126.5t-141 212t-53 289z" />
<glyph unicode="D" horiz-adv-x="1368" d="M203 1348h510q110 0 209 -41t179 -120t127.5 -209.5t47.5 -295.5q0 -191 -76 -346t-219.5 -245.5t-329.5 -90.5h-422v1159zM414 147h262q114 0 206.5 71t143.5 190.5t51 261.5q0 144 -51 265t-143.5 193t-206.5 72h-262v-1053z" />
<glyph unicode="E" d="M203 1348h700v-152h-489v-430h428l-41 -152h-387v-462h512l-41 -152h-656v1159z" />
<glyph unicode="F" horiz-adv-x="985" d="M203 1348h700v-152h-489v-430h428l-41 -152h-387v-460l20 -154h-205v1159z" />
<glyph unicode="G" horiz-adv-x="1347" d="M92 645q0 206 85 373t231.5 260.5t324.5 93.5q258 0 441 -168l-95 -139q-150 156 -344 156q-93 0 -176.5 -47t-142 -123.5t-93 -177.5t-34.5 -207q0 -120 40 -224.5t105.5 -173.5t148.5 -108t171 -39q49 0 111.5 8.5t100.5 17.5l38 9l2 358l-35 152h211l2 -615 q-8 -3 -23.5 -8.5t-65.5 -19t-101.5 -23.5t-127.5 -18.5t-149 -8.5q-121 0 -232 44.5t-199 126.5t-141 212t-53 289z" />
<glyph unicode="H" horiz-adv-x="1546" d="M203 1348h211v-570h721v381l-27 189h211v-1194l20 -154h-204v614h-721v-460l20 -154h-205v1159z" />
<glyph unicode="I" horiz-adv-x="638" d="M203 1348h211v-1194l20 -154h-205v1159z" />
<glyph unicode="J" horiz-adv-x="608" d="M-111 -395l11 180q59 -27 100 -27q97 0 157 93.5t60 226.5v1081l-27 189h211v-1270q0 -97 -23.5 -182.5t-71 -154.5t-126 -109t-180.5 -40q-44 0 -111 13z" />
<glyph unicode="K" horiz-adv-x="1183" d="M203 1348h211v-641l415 507l60 134h264l-532 -639l550 -709h-243l-514 682v-528l20 -154h-205v1159z" />
<glyph unicode="L" horiz-adv-x="954" d="M203 1348h211v-1192h528l-41 -156h-672v1159z" />
<glyph unicode="M" horiz-adv-x="1830" d="M190 1348h136l610 -871l553 871h115v-1194l20 -154h-205v948l-71 -143l-420 -653l-475 653l-68 135v-786l21 -154h-189v1159z" />
<glyph unicode="N" horiz-adv-x="1531" d="M190 1348h125l752 -852l90 -134v797l-27 189h195v-1194l12 -154h-96l-768 860l-88 133v-839l21 -154h-189v1159z" />
<glyph unicode="O" horiz-adv-x="1392" d="M94 662q0 146 47.5 277t128.5 226.5t195.5 151t243.5 55.5q145 0 258.5 -51.5t185.5 -144t109.5 -217t37.5 -273.5q0 -196 -81 -359.5t-223 -258.5t-314 -95q-137 0 -249.5 54.5t-186 148t-113 218.5t-39.5 268zM295 674q0 -152 49.5 -278t142.5 -200.5t211 -74.5 t210.5 74.5t142 200.5t49.5 278t-49.5 278t-142 200.5t-210.5 74.5t-211 -74.5t-142.5 -200.5t-49.5 -278z" />
<glyph unicode="P" horiz-adv-x="1118" d="M203 1348h381q69 0 132.5 -15.5t120 -48.5t98.5 -80t66.5 -114.5t24.5 -147.5q0 -178 -147.5 -308t-364.5 -130h-100v-350l20 -154h-205v1159zM414 655h133q118 0 201 79.5t83 207.5q0 121 -81.5 187.5t-202.5 66.5h-133v-541z" />
<glyph unicode="Q" horiz-adv-x="1392" d="M94 662q0 146 47.5 277t128.5 226.5t195.5 151t243.5 55.5q145 0 258.5 -51.5t185.5 -144t109.5 -217t37.5 -273.5q0 -276 -154 -475.5t-388 -230.5l454 -193l-77 -172l-492 233v129q-170 10 -296.5 104.5t-189.5 245t-63 335.5zM295 674q0 -152 49.5 -278t142.5 -200.5 t211 -74.5t210.5 74.5t142 200.5t49.5 278t-49.5 278t-142 200.5t-210.5 74.5t-211 -74.5t-142.5 -200.5t-49.5 -278z" />
<glyph unicode="R" horiz-adv-x="1204" d="M203 1348h381q69 0 132.5 -15.5t120 -48.5t98.5 -80t66.5 -114.5t24.5 -147.5q0 -120 -70.5 -224t-191.5 -161l420 -557h-238l-360 506q-23 -2 -172 -2v-350l20 -154h-205v1159zM414 655h133q114 0 199 85t85 202q0 121 -81.5 187.5t-202.5 66.5h-133v-541z" />
<glyph unicode="S" horiz-adv-x="983" d="M111 125l20 176q6 -7 17.5 -19.5t48 -43.5t75 -54.5t96.5 -43t115 -19.5q92 0 155.5 60t63.5 163q0 54 -32.5 101t-84 82t-114.5 69t-125.5 71.5t-114 80.5t-84 104.5t-32.5 134.5q0 161 112 273t283 112q188 0 338 -96l-53 -150q-3 8 -40.5 30.5t-109 46.5t-141.5 24 q-78 0 -137.5 -50.5t-59.5 -134.5q0 -60 32 -108.5t83 -84t112.5 -68.5t123 -71t112.5 -82t83 -110t32 -147q0 -176 -111.5 -287t-296.5 -111q-68 0 -130.5 15.5t-103.5 38t-72.5 45t-45.5 38.5z" />
<glyph unicode="T" horiz-adv-x="1077" d="M10 1192v156h1057v-156h-442v-1038l20 -154h-205v1192h-430z" />
<glyph unicode="U" horiz-adv-x="1488" d="M197 1348h211v-846q0 -163 99 -271t249 -108t247 114t97 279v643l-27 189h199v-809q0 -251 -151.5 -408.5t-401.5 -157.5q-99 0 -179.5 27t-130.5 68t-87.5 97t-55.5 104t-28.5 100.5t-12.5 76t-2 39.5v674z" />
<glyph unicode="V" horiz-adv-x="1196" d="M8 1348h246l321 -902l43 -172l54 172l340 902h182l-530 -1375l-129 27l-408 1122z" />
<glyph unicode="W" horiz-adv-x="1892" d="M12 1348h242l321 -902l43 -172l54 172l205 539l-138 363h211l322 -902l43 -172l53 172l340 902h184l-530 -1375l-127 27l-244 668l-37 127l-34 -129l-267 -693l-114 27l-408 1122z" />
<glyph unicode="X" horiz-adv-x="1017" d="M18 0l400 684l-289 518l-106 146h239l240 -428l30 -64l27 64l244 428h192l-383 -648l394 -700h-220l-254 461l-30 67l-33 -71l-256 -457h-195z" />
<glyph unicode="Y" horiz-adv-x="1042" d="M12 1348h238l266 -506l29 -82l39 86l268 502h184l-415 -754v-440l20 -154h-205v594l-317 608z" />
<glyph unicode="Z" horiz-adv-x="1159" d="M66 51l641 1016l90 123h-686l45 158h913l8 -52l-639 -1013l-94 -127h756v-156h-1026z" />
<glyph unicode="[" horiz-adv-x="526" d="M160 -141v1624h329v-127h-165v-1368h165v-129h-329z" />
<glyph unicode="\" horiz-adv-x="729" d="M10 1346h156l563 -1846h-139z" />
<glyph unicode="]" horiz-adv-x="526" d="M37 -12h166v1368h-166v127h330v-1624h-330v129z" />
<glyph unicode="^" horiz-adv-x="1277" d="M145 655q103 180 211.5 379t165.5 308l58 108h114q405 -746 434 -795h-143q-98 180 -185 337.5t-125 224.5l-38 67q-127 -233 -348 -629h-144z" />
<glyph unicode="_" horiz-adv-x="921" d="M4 -154h975l-61 -122h-914v122z" />
<glyph unicode="`" horiz-adv-x="692" d="M74 1483h225l254 -293l-113 -41z" />
<glyph unicode="a" horiz-adv-x="1036" d="M100 227q0 169 160.5 274t415.5 105v74q0 115 -42.5 167t-111.5 52q-53 0 -102 -16t-82 -38.5t-58.5 -45t-37.5 -38.5l-11 -16l-92 134q5 6 15.5 17t48 38t80.5 47.5t112.5 37.5t145.5 17q63 0 116 -14t97 -44t69 -82t25 -122v-543q0 -55 23 -112.5t46 -88.5l23 -30 l-190 -27q-6 9 -16 24.5t-26.5 59.5t-17.5 84q-43 -66 -138 -117t-187 -51q-108 0 -186.5 71.5t-78.5 182.5zM285 258q0 -55 39.5 -96t115.5 -41q61 0 129.5 41.5t106.5 85.5v227q-27 -1 -39.5 -1.5t-60 -6t-78 -13t-75 -24t-71.5 -38.5t-47 -56.5t-20 -77.5z" />
<glyph unicode="b" horiz-adv-x="1122" d="M164 1526l198 22v-606q42 27 73 44t80 32.5t97 15.5q79 0 151 -31t130.5 -91.5t93.5 -160t35 -225.5q0 -147 -62.5 -273t-178.5 -203t-259 -77q-111 0 -205.5 46.5t-126.5 111.5v1206zM362 182q32 -33 84 -54.5t109 -21.5q113 0 194.5 120t81.5 282q0 158 -76.5 273.5 t-189.5 115.5q-42 0 -92.5 -22t-80.5 -42.5t-30 -23.5v-627z" />
<glyph unicode="c" horiz-adv-x="983" d="M100 485q0 110 30.5 208.5t88 176t149 123t205.5 45.5q216 0 334 -143l-108 -137q-96 137 -230 137q-89 0 -156 -54.5t-99.5 -139t-32.5 -183.5q0 -73 17.5 -140t51 -123.5t91 -90t130.5 -33.5q49 0 98.5 14.5t85.5 34.5t65 40.5t44 35.5l15 14l28 -155 q-5 -6 -15.5 -15.5t-47 -34t-77.5 -43t-107.5 -34t-137.5 -15.5q-97 0 -178.5 44t-133.5 117t-81 164t-29 187z" />
<glyph unicode="d" horiz-adv-x="1118" d="M100 481q0 147 62.5 273t178.5 203t259 77q46 0 160 -12v313l-27 189l199 22v-1315q0 -55 23 -112.5t46 -88.5l23 -30l-190 -27q-50 68 -60 150q-147 -150 -305 -150q-155 0 -262 136t-107 372zM291 500q0 -173 70.5 -280t173.5 -107q55 0 114 35.5t111 101.5v637 l-126 12q-39 2 -67 2q-113 0 -194.5 -119.5t-81.5 -281.5z" />
<glyph unicode="e" horiz-adv-x="1007" d="M104 485q0 111 27.5 208.5t81 175.5t142.5 123.5t202 45.5q66 0 119.5 -20.5t88.5 -52t61.5 -77.5t40.5 -87.5t23 -93t11.5 -83t3.5 -67.5l-47 -53h-571q2 -72 19.5 -136.5t51 -118.5t89.5 -86t128 -32q49 0 100 14.5t89 34.5t69 40.5t47 35.5l17 14l29 -155 q-6 -6 -17.5 -15.5t-50 -34t-82 -43t-111.5 -34t-139 -15.5q-97 0 -178.5 44t-133.5 117t-81 164t-29 187zM297 635h422q-3 45 -12.5 87.5t-29.5 86t-57.5 70t-87.5 26.5q-182 0 -235 -270z" />
<glyph unicode="f" horiz-adv-x="671" d="M82 868v140h125v149q0 199 83.5 293t213.5 94q116 0 235 -69l-67 -154q-74 61 -148 61q-64 0 -104.5 -49t-40.5 -139v-186h287l-62 -140h-225v-657l20 -211h-192v868h-125z" />
<glyph unicode="g" horiz-adv-x="1058" d="M72 -281l127 117q36 -103 125 -153t196 -50q115 0 197 47.5t82 114.5q0 50 -36 77t-93.5 33.5t-127 7t-139 5t-127 20t-93.5 59.5t-36 116q0 57 36 112t79 94q-65 53 -104 134t-39 176q0 178 118 293.5t306 115.5q59 0 107.5 -14t67.5 -28l19 -15l37 27h268l-41 -140 h-163q67 -83 67 -211q0 -102 -33.5 -183t-90.5 -130.5t-128.5 -75.5t-150.5 -26q-80 0 -154 28q-57 -71 -57 -114q0 -34 38 -49t99 -17q49 -2 106 -2h29q4 1 8 1l140 -9q74 -8 135 -29.5t99 -74t38 -134.5q0 -79 -42.5 -145t-112 -107.5t-155 -64.5t-175.5 -23 q-104 0 -186 22.5t-125 54t-71 63.5t-36 54zM297 639q0 -111 65 -190.5t152 -79.5t149 79t62 191t-62.5 192t-148.5 80q-87 0 -152 -80t-65 -192z" />
<glyph unicode="h" horiz-adv-x="1183" d="M168 1524l199 22v-669q65 71 165.5 115t200.5 44q110 0 189 -62.5t79 -178.5v-645l21 -150h-193v590q0 157 -29.5 222t-119.5 65q-60 0 -114.5 -15.5t-89 -38t-60.5 -45t-38 -38.5l-11 -15v-571l20 -154h-192v1335z" />
<glyph unicode="i" horiz-adv-x="561" d="M164 1313q0 43 31 74.5t75 31.5q42 0 73.5 -31.5t31.5 -74.5t-32 -77t-73 -34q-43 0 -74.5 33.5t-31.5 77.5zM168 1008l199 22v-876l20 -154h-192v819z" />
<glyph unicode="j" horiz-adv-x="552" d="M-41 -356q236 0 236 331v844l-27 189l199 22v-1055q0 -211 -96 -341t-244 -132zM164 1313q0 43 31 74.5t75 31.5q42 0 73.5 -31.5t31.5 -74.5t-32 -77t-73 -34q-43 0 -74.5 33.5t-31.5 77.5z" />
<glyph unicode="k" horiz-adv-x="1046" d="M168 1524l199 22v-989l329 350l56 101h260l-455 -443l485 -565h-233l-442 535v-381l20 -154h-192v1335z" />
<glyph unicode="l" horiz-adv-x="561" d="M168 1524l199 22v-1392l20 -154h-192v1335z" />
<glyph unicode="m" horiz-adv-x="1810" d="M168 1008l199 22v-153q65 71 165.5 115t200.5 44q86 0 156 -41.5t98 -117.5q65 71 165.5 115t201.5 44q110 0 189 -62.5t79 -178.5v-645l20 -150h-192v590q0 62 -3.5 105t-13 80t-26 58t-43 32.5t-64.5 11.5q-178 0 -299 -134v-593l21 -150h-193v590q0 157 -29.5 222 t-119.5 65q-60 0 -114.5 -15.5t-89 -38t-60.5 -45t-38 -38.5l-11 -15v-571l20 -154h-192v819z" />
<glyph unicode="n" horiz-adv-x="1189" d="M168 1008l199 22v-153q65 71 165.5 115t200.5 44q110 0 189 -62.5t79 -178.5v-645l21 -150h-193v590q0 157 -29.5 222t-119.5 65q-60 0 -114.5 -15.5t-89 -38t-60.5 -45t-38 -38.5l-11 -15v-571l20 -154h-192v819z" />
<glyph unicode="o" horiz-adv-x="1132" d="M100 487q0 242 136.5 396.5t365.5 154.5q193 0 311.5 -130.5t118.5 -381.5q0 -149 -58 -273.5t-174 -202t-268 -77.5q-86 0 -156.5 27.5t-114 68t-76.5 97t-48.5 105t-24.5 101t-10.5 76t-1.5 39.5zM289 506q0 -167 75.5 -281t200.5 -114q126 0 202.5 114.5t76.5 280.5 t-76.5 280.5t-202.5 114.5q-125 0 -200.5 -114t-75.5 -281z" />
<glyph unicode="p" horiz-adv-x="1132" d="M168 1008l199 22v-121q4 5 11.5 13.5t35 30t58 38t81 30t104.5 13.5q155 0 262 -136t107 -372q0 -147 -62.5 -273t-178.5 -203t-259 -77q-36 0 -159 13v-324l20 -154h-192v1311zM367 121l121 -12q41 -3 71 -3q113 0 195 120t82 282q0 171 -67.5 276t-170.5 105 q-38 0 -76 -13.5t-65 -33.5t-48 -39.5t-31 -32.5l-11 -14v-635z" />
<glyph unicode="q" horiz-adv-x="1107" d="M100 485q0 147 62.5 273t178.5 203t259 77q54 0 137 -8.5t139 -17.5l56 -8v-1307l16 -189h-188v555q-138 -90 -250 -90q-79 0 -151 32t-130.5 93t-93.5 161t-35 226zM291 504q0 -162 81.5 -282t194.5 -120q102 0 193 82v701q-121 20 -193 20q-113 0 -194.5 -119.5 t-81.5 -281.5z" />
<glyph unicode="r" horiz-adv-x="794" d="M168 1008l199 22v-225q17 30 30.5 52t44.5 59t63 61t80 42.5t101 18.5q75 0 129 -57l-70 -168q-49 43 -104 43q-101 0 -187.5 -100.5t-86.5 -233.5v-368l20 -154h-192v819z" />
<glyph unicode="s" horiz-adv-x="874" d="M100 737q0 136 97 218.5t245 82.5q181 0 295 -69l-49 -164q-100 102 -262 102q-63 0 -107.5 -35t-44.5 -86q0 -44 27.5 -79t71.5 -59t97.5 -47t107 -50t97.5 -60.5t71.5 -86t27.5 -119.5q0 -138 -97.5 -225t-258.5 -87q-59 0 -112 12.5t-87 30t-59.5 34.5t-37.5 30 l-11 12l18 166q5 -6 14 -15t38.5 -32.5t61 -41.5t80 -33t97.5 -15q81 0 130.5 32.5t49.5 104.5q0 37 -27.5 68t-71.5 54.5t-97.5 47t-107 51.5t-97.5 61.5t-71.5 84t-27.5 112.5z" />
<glyph unicode="t" horiz-adv-x="751" d="M80 868v140h125v184l192 22l-20 -206h313l-61 -140h-252v-600q0 -68 30.5 -99.5t81.5 -31.5q59 0 121 23t101 61l28 -155q-117 -93 -290 -93q-108 0 -176 76.5t-68 235.5v583h-125z" />
<glyph unicode="u" horiz-adv-x="1177" d="M158 1008l198 22v-610q0 -62 3.5 -105t13 -80t26 -58t43 -32.5t64.5 -11.5q60 0 114.5 16t89 38.5t60.5 45t38 38.5l11 16v532l-26 189l198 22v-799q0 -55 23 -112.5t46 -88.5l23 -30l-190 -27q-7 10 -16.5 26.5t-26 63.5t-16.5 89q-60 -76 -169.5 -127.5t-211.5 -51.5 q-110 0 -189.5 63t-79.5 179v604z" />
<glyph unicode="v" horiz-adv-x="972" d="M12 1008l201 26l236 -682l30 -149l43 149l258 656l181 26l-424 -1061l-154 27l-281 838z" />
<glyph unicode="w" horiz-adv-x="1654" d="M12 1008l195 26l237 -682l31 -147l43 147l227 578l-40 78l198 26l234 -684l28 -145l43 147l258 656l176 26l-423 -1061l-144 27l-246 721l-303 -748l-143 27l-281 838z" />
<glyph unicode="x" horiz-adv-x="913" d="M0 0l373 530l-211 332l-127 146l219 26l199 -313l20 -51l31 51l201 287l206 26l-348 -485l350 -549h-213l-215 350l-30 60l-29 -60l-240 -350h-186z" />
<glyph unicode="y" horiz-adv-x="972" d="M-29 -301q61 -21 105 -21q83 0 153 54.5t111 163.5l43 112l-281 830l-90 170l201 26l240 -682l26 -149l43 149l258 656l181 26l-484 -1206q-63 -157 -161.5 -241.5t-209.5 -84.5q-45 0 -106 23z" />
<glyph unicode="z" horiz-adv-x="919" d="M51 39l475 745l64 84h-512l41 140h723l6 -39l-471 -746l-64 -84h545v-139h-801z" />
<glyph unicode="{" horiz-adv-x="561" d="M35 559v107q42 0 74 14.5t47.5 33.5t25 44.5t11.5 41t2 29.5v412q0 150 91.5 227.5t237.5 77.5v-127q-166 0 -166 -184v-404q0 -37 -9.5 -73.5t-23.5 -61.5t-28 -45t-23 -29l-10 -10q4 -4 10 -10.5t22.5 -28.5t29 -45.5t22.5 -60.5t10 -74v-577q0 -185 166 -185v-127 q-146 0 -237.5 78t-91.5 228v585q0 14 -2 29.5t-11.5 41t-25 45t-47.5 34t-74 14.5z" />
<glyph unicode="|" horiz-adv-x="464" d="M160 -520v2068h145v-2068h-145z" />
<glyph unicode="}" horiz-adv-x="561" d="M37 -369q166 0 166 185v577q0 37 9.5 73.5t23.5 61.5t28 45t24 29l9 10q-4 4 -10 10.5t-22.5 28.5t-29 45.5t-22.5 60.5t-10 74v404q0 184 -166 184v127q146 0 238 -77.5t92 -227.5v-412q0 -14 2 -29.5t11 -41t25 -44.5t47.5 -33.5t73.5 -14.5v-107q-42 0 -73.5 -14.5 t-47.5 -34t-25 -45t-11 -41t-2 -29.5v-585q0 -150 -92 -228t-238 -78v127z" />
<glyph unicode="~" horiz-adv-x="1183" d="M100 592q129 113 275 113q68 0 130.5 -20.5t102 -45.5t95.5 -45.5t112 -20.5q97 0 207 99l61 -121q-124 -127 -280 -127q-67 0 -132 20.5t-107.5 45t-97.5 45t-106 20.5q-99 0 -200 -88z" />
<glyph unicode="&#xa1;" horiz-adv-x="540" d="M137 1245q0 54 36 91.5t87 37.5t87 -37.5t36 -91.5q0 -51 -36 -88t-87 -37t-87 37t-36 88zM162 -201l31 1159l137 21l26 -971l27 -182z" />
<glyph unicode="&#xa2;" horiz-adv-x="966" d="M104 485q0 135 44 250.5t137 197t221 99.5v166h106v-162q189 -9 299 -141l-84 -119q-23 36 -95 80t-120 45v-764q45 4 89.5 19.5t75.5 35.5t56 39t37 32l13 13l28 -161q-4 -4 -12.5 -11.5t-38 -27t-61.5 -36t-83 -33.5t-104 -25v-175h-106v166q-76 2 -142 32t-113 79 t-80.5 114t-50 138t-16.5 149zM289 518q0 -130 56 -234.5t161 -136.5v748q-69 -20 -119 -78.5t-74 -135.5t-24 -163z" />
<glyph unicode="&#xa3;" horiz-adv-x="1124" d="M84 -209q7 14 17.5 39t38 103t48.5 156t38.5 188t17.5 210v72h-125v139h125v439q0 81 29 150.5t74.5 115.5t102.5 79t112.5 47.5t105.5 14.5q71 0 136.5 -13.5t108.5 -33t75.5 -38.5t47.5 -33l15 -13l-70 -162q-5 6 -15.5 15.5t-42 34.5t-64 44t-80 34.5t-91.5 15.5 q-120 0 -193 -72t-73 -170v-455h424l-62 -139h-362v-90q0 -138 -24 -269.5t-48 -193.5l-24 -63h757l-41 -152h-958z" />
<glyph unicode="&#xa5;" horiz-adv-x="1064" d="M23 1348h258l299 -568l303 568h178l-334 -594h225l-41 -140h-260v-198h281l-41 -140h-240v-122l21 -154h-205v276h-264v140h264v198h-264v140h180l-233 448z" />
<glyph unicode="&#xa7;" horiz-adv-x="860" d="M80 -233l8 133q51 -60 120.5 -90.5t145.5 -30.5q-217 1402 -217 1431q0 152 117 244t281 92q72 0 128.5 -13.5t85.5 -33t47.5 -39.5t23.5 -34l5 -13l-8 -133q-51 59 -121.5 90t-142.5 31q215 -1429 215 -1434q0 -153 -116 -243.5t-281 -90.5q-72 0 -128.5 14t-86 33.5 t-48 39t-23.5 33.5zM270 1210q0 -9 213 -1413q150 48 150 172q0 22 -213 1413q-150 -45 -150 -172z" />
<glyph unicode="&#xa8;" horiz-adv-x="786" d="M106 1292q0 46 31 79.5t72 33.5t71.5 -33.5t30.5 -79.5q0 -47 -30 -79.5t-72 -32.5t-72.5 32.5t-30.5 79.5zM483 1292q0 46 31 79.5t72 33.5t71.5 -33.5t30.5 -79.5q0 -47 -30 -79.5t-72 -32.5t-72.5 32.5t-30.5 79.5z" />
<glyph unicode="&#xa9;" horiz-adv-x="1617" d="M113 639q0 321 206 521t541 200q185 0 333 -87t230 -238t82 -337q0 -212 -90 -377t-256 -256.5t-383 -91.5q-191 0 -343 87.5t-236 239.5t-84 339zM244 664q0 -249 165 -415.5t412 -166.5q112 0 214 44.5t177.5 121.5t120.5 188t45 236q0 255 -157.5 419t-403.5 164 q-116 0 -221.5 -44.5t-183 -121.5t-123 -188t-45.5 -237zM477 657q0 80 22.5 151t65 127t110 89t150.5 33q158 0 248 -107l-76 -106q-64 90 -176 90q-90 0 -141 -73t-51 -181q0 -69 20.5 -126.5t68 -96.5t113.5 -39q52 0 106.5 27.5t82.5 54.5l29 28l24 -135 q-4 -4 -12.5 -11t-36.5 -25t-59.5 -32t-81.5 -25t-103 -11q-94 0 -165 55t-104.5 137t-33.5 176z" />
<glyph unicode="&#xaa;" horiz-adv-x="829" d="M80 776q0 114 114.5 189t315.5 79v64q0 83 -28 121.5t-72 38.5q-37 0 -73 -13t-61.5 -32t-45.5 -37.5t-30 -31.5l-10 -13l-81 112q4 5 12 13t36.5 29t61.5 37t87.5 29t113.5 13q106 0 175 -47.5t69 -148.5v-408q0 -40 17 -82.5t35 -65.5l17 -22l-160 -22q-5 3 -13.5 10 t-22.5 32.5t-15 55.5q-40 -40 -105.5 -69t-117.5 -29q-105 0 -162 59t-57 139zM238 801q0 -43 28 -76t82 -33q41 0 86 28.5t76 61.5v170q-22 -2 -41 -4t-54 -8t-63 -17t-55.5 -26.5t-43 -40t-15.5 -55.5z" />
<glyph unicode="&#xab;" horiz-adv-x="1230" d="M82 506l498 469l79 -131l-354 -340l354 -336l-79 -131zM551 506l498 469l79 -131l-354 -340l354 -336l-79 -131z" />
<glyph unicode="&#xac;" horiz-adv-x="2482" d="M92 502l1079 356v-708zM1341 502q0 44 32.5 76t76.5 32q46 0 78.5 -32t32.5 -76q0 -46 -32.5 -78.5t-78.5 -32.5q-44 0 -76.5 32.5t-32.5 78.5zM1751 502q0 44 32.5 76t76.5 32q46 0 78 -32t32 -76q0 -46 -32 -78.5t-78 -32.5q-44 0 -76.5 32.5t-32.5 78.5zM2171 502 q0 44 32 76t76 32q46 0 78.5 -32t32.5 -76q0 -46 -32.5 -78.5t-78.5 -32.5q-44 0 -76 32.5t-32 78.5z" />
<glyph unicode="&#xad;" horiz-adv-x="618" d="M63 430v152h506l-41 -152h-465z" />
<glyph unicode="&#xae;" horiz-adv-x="1617" d="M113 639q0 321 206 521t541 200q185 0 333 -87t230 -238t82 -337q0 -212 -90 -377t-256 -256.5t-383 -91.5q-191 0 -343 87.5t-236 239.5t-84 339zM244 664q0 -249 165 -415.5t412 -166.5q112 0 214 44.5t177.5 121.5t120.5 188t45 236q0 255 -157.5 419t-403.5 164 q-116 0 -221.5 -44.5t-183 -121.5t-123 -188t-45.5 -237zM594 1040h221q104 0 177 -58t73 -163q0 -64 -35 -119.5t-102 -85.5l227 -295h-164l-186 265h-57v-178q0 -16 10 -87h-152v613zM748 666h49q48 0 87.5 47.5t39.5 105.5t-39 96.5t-88 38.5h-49v-288z" />
<glyph unicode="&#xaf;" horiz-adv-x="686" d="M102 1210v152h506l-41 -152h-465z" />
<glyph unicode="&#xb0;" horiz-adv-x="817" d="M53 1180q0 139 103.5 240.5t240.5 101.5q139 0 243.5 -101t104.5 -241t-104.5 -242t-243.5 -102q-136 0 -240 102t-104 242zM188 1184q0 -84 61 -152.5t150 -68.5q96 0 153.5 67.5t57.5 153.5q0 82 -65 143.5t-146 61.5q-86 0 -148.5 -61t-62.5 -144z" />
<glyph unicode="&#xb1;" horiz-adv-x="964" d="M119 586v151h293v305l143 -38v-267h305l-41 -151h-264v-299h-143v299h-293zM178 0v141h635l-41 -141h-594z" />
<glyph unicode="&#xb2;" horiz-adv-x="714" d="M104 649q1 2 30 31t62.5 64t75.5 86t75 99.5t56 101.5t23 95q0 61 -30.5 95t-71.5 34q-95 0 -158 -73l-60 114q93 80 236 80q103 0 175.5 -57.5t72.5 -167.5q0 -55 -30 -121.5t-66.5 -116.5t-85.5 -103t-70.5 -72.5t-36.5 -32.5h330l-13 -119h-501z" />
<glyph unicode="&#xb3;" horiz-adv-x="714" d="M92 705q85 -17 129 -17q228 0 228 119q0 45 -34 77.5t-77.5 46t-87.5 13.5l16 82q156 66 156 156q0 82 -90 82q-44 0 -86 -17t-62 -34l-20 -17l-55 104q41 33 103 54.5t126 21.5q100 0 173 -47t73 -129q0 -59 -42.5 -111t-111.5 -73q76 -12 130 -64t54 -145 q0 -63 -30.5 -109.5t-82 -73t-112 -39t-129.5 -12.5q-21 0 -44.5 2t-51 6t-41.5 5z" />
<glyph unicode="&#xb4;" horiz-adv-x="692" d="M139 1190l254 293h225l-366 -334z" />
<glyph unicode="&#xb5;" horiz-adv-x="1062" />
<glyph unicode="&#xb6;" horiz-adv-x="1273" d="M119 748q0 122 47.5 233.5t128 191.5t192 127.5t234.5 47.5h123v-1848h-123v647q-163 0 -302 80.5t-219.5 219t-80.5 301.5zM977 -500v1848h123v-1848h-123z" />
<glyph unicode="&#xb7;" horiz-adv-x="528" d="M135 502q0 51 36 88t87 37t87 -37t36 -88q0 -54 -36 -91.5t-87 -37.5t-87 37.5t-36 91.5z" />
<glyph unicode="&#xb8;" horiz-adv-x="823" d="M164 -418l49 101q22 -22 61.5 -35t81.5 -13q117 0 117 76q0 29 -28.5 55t-79 58.5t-76.5 56.5l20 105h60q15 -20 46 -42t60.5 -40.5t58.5 -41t46.5 -54t17.5 -68.5q0 -106 -69 -163.5t-169 -57.5q-108 0 -196 63z" />
<glyph unicode="&#xb9;" horiz-adv-x="614" d="M92 1274l324 104v-698h159l-12 -94h-465v94h162v543l-131 -41z" />
<glyph unicode="&#xba;" horiz-adv-x="905" d="M92 963q0 183 105 298t282 115q150 0 242 -98t92 -287q0 -174 -104.5 -293.5t-282.5 -119.5q-67 0 -121 20.5t-88 51t-59 72.5t-37 78.5t-19.5 76t-8.5 57t-1 29.5zM258 977q0 -124 53 -210.5t140 -86.5q88 0 141 86t53 211t-53 211t-141 86q-87 0 -140 -86.5t-53 -210.5 z" />
<glyph unicode="&#xbb;" horiz-adv-x="1230" d="M102 168l355 336l-355 340l80 131l498 -469l-498 -469zM571 168l355 336l-355 340l80 131l498 -469l-498 -469z" />
<glyph unicode="&#xbc;" horiz-adv-x="1409" d="M92 1274l324 104v-698h159l-12 -94h-465v94h162v543l-131 -41zM381 193l700 1017l105 -41l-676 -976h-129zM729 145l356 537l134 -41v-457h143l-27 -110h-116v-90l12 -103h-164v193h-324zM862 182l58 2h149v242l4 74l-33 -68l-149 -221z" />
<glyph unicode="&#xbd;" horiz-adv-x="1454" d="M92 1274l324 104v-698h159l-12 -94h-465v94h162v543l-131 -41zM358 193l701 1017l104 -41l-676 -976h-129zM844 -55q35 36 75 82.5t101.5 125.5t101 158.5t39.5 137.5q0 108 -98 108q-89 0 -158 -80l-59 115q93 80 235 80q101 0 174.5 -55.5t73.5 -151.5 q0 -68 -41.5 -151.5t-99.5 -153t-95 -108t-53 -52.5h330l-12 -119h-502z" />
<glyph unicode="&#xbe;" horiz-adv-x="1384" d="M92 705q85 -17 129 -17q228 0 228 119q0 45 -34 77.5t-77.5 46t-87.5 13.5l16 82q156 66 156 156q0 82 -90 82q-44 0 -86 -17t-62 -34l-20 -17l-55 104q41 33 103 54.5t126 21.5q100 0 173 -47t73 -129q0 -59 -42.5 -111t-111.5 -73q76 -12 130 -64t54 -145 q0 -63 -30.5 -109.5t-82 -73t-112 -39t-129.5 -12.5q-21 0 -44.5 2t-51 6t-41.5 5zM356 193l701 1017l104 -41l-676 -976h-129zM705 145l356 537l133 -41v-457h143l-26 -110h-117v-90l12 -103h-164v193h-323zM838 182l57 2h149v242l5 74l-33 -68l-150 -221z" />
<glyph unicode="&#xbf;" horiz-adv-x="878" d="M82 139q0 74 23.5 143t60.5 122.5t82 103.5t90 96t82 91t60.5 96.5t23.5 103.5q0 13 -5 38t-9 43l-5 19l164 -53q8 -46 8 -70q0 -64 -20.5 -123.5t-54 -106t-73.5 -91.5t-80 -88.5t-73.5 -87.5t-54 -98.5t-20.5 -112.5q0 -83 56.5 -140t160.5 -57q40 0 90.5 13.5t82 26.5 t31.5 16l70 -166q-123 -60 -274 -60q-185 0 -300.5 95t-115.5 247zM412 1245q0 54 38.5 91.5t92.5 37.5t92.5 -37.5t38.5 -91.5q0 -51 -38.5 -88t-92.5 -37t-92.5 37t-38.5 88z" />
<glyph unicode="&#xc0;" horiz-adv-x="1169" d="M-4 0l520 1348l125 26l418 -1149l102 -225h-223l-129 352h-502l-133 -352h-178zM260 1792h225l254 -293l-112 -41zM362 508h396l-170 471l-21 80l-24 -82z" />
<glyph unicode="&#xc1;" horiz-adv-x="1169" d="M-4 0l520 1348l125 26l418 -1149l102 -225h-223l-129 352h-502l-133 -352h-178zM362 508h396l-170 471l-21 80l-24 -82zM432 1499l254 293h225l-366 -334z" />
<glyph unicode="&#xc2;" horiz-adv-x="1169" d="M-4 0l520 1348l125 26l418 -1149l102 -225h-223l-129 352h-502l-133 -352h-178zM266 1499l254 293h127l254 -293l-108 -41l-211 191l-207 -191zM362 508h396l-170 471l-21 80l-24 -82z" />
<glyph unicode="&#xc3;" horiz-adv-x="1169" d="M-4 0l520 1348l125 26l418 -1149l102 -225h-223l-129 352h-502l-133 -352h-178zM256 1546q20 35 28 48t28 37.5t38 34t48.5 18t68.5 8.5q47 0 93.5 -19.5t87.5 -39t73 -19.5q71 0 104 72l88 -54q-20 -34 -28 -47.5t-28 -37.5t-38 -33.5t-48.5 -18t-68.5 -8.5 q-52 0 -99.5 18.5t-86.5 37t-70 18.5q-56 0 -102 -68zM362 508h396l-170 471l-21 80l-24 -82z" />
<glyph unicode="&#xc4;" horiz-adv-x="1169" d="M-4 0l520 1348l125 26l418 -1149l102 -225h-223l-129 352h-502l-133 -352h-178zM293 1602q0 46 30.5 79t71.5 33t72 -33t31 -79q0 -47 -30.5 -80t-72.5 -33t-72 33t-30 80zM362 508h396l-170 471l-21 80l-24 -82zM670 1602q0 46 30.5 79t71.5 33t71.5 -33t30.5 -79 q0 -47 -30 -80t-72 -33t-72 33t-30 80z" />
<glyph unicode="&#xc5;" horiz-adv-x="1169" d="M-4 0l520 1348l125 26l418 -1149l102 -225h-223l-129 352h-502l-133 -352h-178zM362 508h396l-170 471l-21 80l-24 -82zM401 1620q0 73 55 126.5t128 53.5q74 0 130 -53.5t56 -126.5t-56 -126.5t-130 -53.5q-73 0 -128 53.5t-55 126.5zM477 1622q0 -43 32 -80t77 -37 q49 0 78.5 36t29.5 81q0 44 -33 76.5t-75 32.5q-44 0 -76.5 -32.5t-32.5 -76.5z" />
<glyph unicode="&#xc6;" horiz-adv-x="1566" d="M-12 0l655 1348h803v-152h-490v-430h428l-41 -152h-387v-462h512l-41 -152h-655v356h-444q-28 -59 -85 -178t-85 -178h-170zM399 508h373v651l-14 96z" />
<glyph unicode="&#xc7;" horiz-adv-x="1263" d="M92 645q0 154 51.5 290t139 231.5t207.5 150.5t253 55q248 0 431 -168l-95 -139q-150 156 -344 156q-128 0 -231.5 -79.5t-159 -206t-55.5 -269.5q0 -120 40 -222.5t105 -169.5t147.5 -105t168.5 -38q52 0 112 17.5t108.5 43t89.5 51t64 43.5l23 17l45 -151 q-8 -7 -23 -19t-63.5 -43t-101 -54.5t-131 -43t-156.5 -19.5q-121 0 -232 44.5t-199 126.5t-141 212t-53 289zM514 -418l49 101q21 -21 61.5 -34.5t82.5 -13.5q116 0 116 76q0 29 -28.5 55t-79 58.5t-76.5 56.5l20 105h60q15 -20 46 -42t60.5 -40.5t58.5 -41t46.5 -54 t17.5 -68.5q0 -107 -69 -164t-168 -57q-109 0 -197 63z" />
<glyph unicode="&#xc8;" d="M203 1348h700v-152h-489v-430h428l-41 -152h-387v-462h512l-41 -152h-656v1159zM238 1792h225l254 -293l-113 -41z" />
<glyph unicode="&#xc9;" d="M203 1348h700v-152h-489v-430h428l-41 -152h-387v-462h512l-41 -152h-656v1159zM410 1499l254 293h225l-367 -334z" />
<glyph unicode="&#xca;" d="M203 1348h700v-152h-489v-430h428l-41 -152h-387v-462h512l-41 -152h-656v1159zM244 1499l254 293h127l254 -293l-109 -41l-211 191l-207 -191z" />
<glyph unicode="&#xcb;" d="M203 1348h700v-152h-489v-430h428l-41 -152h-387v-462h512l-41 -152h-656v1159zM270 1602q0 46 31 79t72 33t71.5 -33t30.5 -79q0 -47 -30 -80t-72 -33t-72.5 33t-30.5 80zM647 1602q0 46 31 79t72 33t71.5 -33t30.5 -79q0 -47 -30 -80t-72 -33t-72.5 33t-30.5 80z" />
<glyph unicode="&#xcc;" horiz-adv-x="638" d="M2 1792h225l254 -293l-112 -41zM203 1348h211v-1194l20 -154h-205v1159z" />
<glyph unicode="&#xcd;" horiz-adv-x="638" d="M174 1499l254 293h225l-366 -334zM203 1348h211v-1194l20 -154h-205v1159z" />
<glyph unicode="&#xce;" horiz-adv-x="638" d="M8 1499l254 293h127l254 -293l-108 -41l-211 191l-207 -191zM203 1348h211v-1194l20 -154h-205v1159z" />
<glyph unicode="&#xcf;" horiz-adv-x="638" d="M35 1602q0 46 30.5 79t71.5 33t72 -33t31 -79q0 -47 -30.5 -80t-72.5 -33t-72 33t-30 80zM203 1348h211v-1194l20 -154h-205v1159zM412 1602q0 46 30.5 79t71.5 33t71.5 -33t30.5 -79q0 -47 -30 -80t-72 -33t-72 33t-30 80z" />
<glyph unicode="&#xd0;" horiz-adv-x="1390" d="M82 614v152h170v393l-27 189h510q110 0 209 -41t179 -120t127.5 -209.5t47.5 -295.5q0 -143 -44.5 -268t-124 -216.5t-197.5 -144.5t-258 -53h-422v614h-170zM436 137h262q85 0 160.5 43.5t128 116t83 170t30.5 203.5q0 144 -51 269.5t-144.5 202.5t-206.5 77h-262v-453 h275l-41 -152h-234v-477z" />
<glyph unicode="&#xd1;" horiz-adv-x="1531" d="M190 1348h125l752 -852l90 -134v797l-27 189h195v-1194l12 -154h-96l-768 860l-88 133v-839l21 -154h-189v1159zM432 1546q20 35 28 48t28 37.5t38 34t48.5 18t68.5 8.5q47 0 93.5 -19.5t87.5 -39t73 -19.5q71 0 104 72l89 -54q-20 -34 -28 -47.5t-28 -37.5t-38 -33.5 t-48.5 -18t-68.5 -8.5q-52 0 -99.5 18.5t-86.5 37t-70 18.5q-57 0 -103 -68z" />
<glyph unicode="&#xd2;" horiz-adv-x="1392" d="M94 662q0 146 47.5 277t128.5 226.5t195.5 151t243.5 55.5q145 0 258.5 -51.5t185.5 -144t109.5 -217t37.5 -273.5q0 -196 -81 -359.5t-223 -258.5t-314 -95q-137 0 -249.5 54.5t-186 148t-113 218.5t-39.5 268zM295 674q0 -152 49.5 -278t142.5 -200.5t211 -74.5 t210.5 74.5t142 200.5t49.5 278t-49.5 278t-142 200.5t-210.5 74.5t-211 -74.5t-142.5 -200.5t-49.5 -278zM371 1792h225l254 -293l-113 -41z" />
<glyph unicode="&#xd3;" horiz-adv-x="1392" d="M94 662q0 146 47.5 277t128.5 226.5t195.5 151t243.5 55.5q145 0 258.5 -51.5t185.5 -144t109.5 -217t37.5 -273.5q0 -196 -81 -359.5t-223 -258.5t-314 -95q-137 0 -249.5 54.5t-186 148t-113 218.5t-39.5 268zM295 674q0 -152 49.5 -278t142.5 -200.5t211 -74.5 t210.5 74.5t142 200.5t49.5 278t-49.5 278t-142 200.5t-210.5 74.5t-211 -74.5t-142.5 -200.5t-49.5 -278zM543 1499l254 293h225l-367 -334z" />
<glyph unicode="&#xd4;" horiz-adv-x="1392" d="M94 662q0 146 47.5 277t128.5 226.5t195.5 151t243.5 55.5q145 0 258.5 -51.5t185.5 -144t109.5 -217t37.5 -273.5q0 -196 -81 -359.5t-223 -258.5t-314 -95q-137 0 -249.5 54.5t-186 148t-113 218.5t-39.5 268zM295 674q0 -152 49.5 -278t142.5 -200.5t211 -74.5 t210.5 74.5t142 200.5t49.5 278t-49.5 278t-142 200.5t-210.5 74.5t-211 -74.5t-142.5 -200.5t-49.5 -278zM377 1499l254 293h127l254 -293l-109 -41l-211 191l-207 -191z" />
<glyph unicode="&#xd5;" horiz-adv-x="1392" d="M94 662q0 146 47.5 277t128.5 226.5t195.5 151t243.5 55.5q145 0 258.5 -51.5t185.5 -144t109.5 -217t37.5 -273.5q0 -196 -81 -359.5t-223 -258.5t-314 -95q-137 0 -249.5 54.5t-186 148t-113 218.5t-39.5 268zM295 674q0 -152 49.5 -278t142.5 -200.5t211 -74.5 t210.5 74.5t142 200.5t49.5 278t-49.5 278t-142 200.5t-210.5 74.5t-211 -74.5t-142.5 -200.5t-49.5 -278zM367 1577q20 34 28 47.5t28 37.5t38 33.5t48.5 18t68.5 8.5q37 0 75 -12t63.5 -26.5t57 -26.5t57.5 -12q73 0 105 71l88 -53q-20 -34 -28 -47.5t-28 -37.5t-38 -33.5 t-48.5 -18t-68.5 -8.5q-53 0 -100 18t-86 36.5t-70 18.5q-57 0 -102 -67z" />
<glyph unicode="&#xd6;" horiz-adv-x="1392" d="M94 662q0 146 47.5 277t128.5 226.5t195.5 151t243.5 55.5q145 0 258.5 -51.5t185.5 -144t109.5 -217t37.5 -273.5q0 -196 -81 -359.5t-223 -258.5t-314 -95q-137 0 -249.5 54.5t-186 148t-113 218.5t-39.5 268zM295 674q0 -152 49.5 -278t142.5 -200.5t211 -74.5 t210.5 74.5t142 200.5t49.5 278t-49.5 278t-142 200.5t-210.5 74.5t-211 -74.5t-142.5 -200.5t-49.5 -278zM403 1602q0 46 31 79t72 33t71.5 -33t30.5 -79q0 -47 -30 -80t-72 -33t-72.5 33t-30.5 80zM780 1602q0 46 31 79t72 33t71.5 -33t30.5 -79q0 -47 -30 -80t-72 -33 t-72.5 33t-30.5 80z" />
<glyph unicode="&#xd7;" horiz-adv-x="878" d="M78 776l129 74l233 -232l258 261l78 -138l-229 -229l254 -256l-101 -100l-256 254l-249 -250l-107 106l250 252z" />
<glyph unicode="&#xd8;" horiz-adv-x="1392" d="M94 662q0 146 47.5 277t128.5 226.5t195.5 151t243.5 55.5q49 0 92 -6l43 180h117l-50 -205q189 -62 289 -236.5t100 -418.5q0 -196 -81 -359t-223 -257.5t-314 -94.5q-50 0 -96 9l-41 -170h-111l45 194q-122 44 -209.5 141t-131.5 228.5t-44 284.5zM295 674 q0 -166 59.5 -300t163.5 -200l248 1045q-31 8 -68 8q-118 0 -211 -74.5t-142.5 -200.5t-49.5 -278zM621 131q33 -8 77 -8q118 0 210.5 74t142 199.5t49.5 277.5q0 167 -61 302.5t-167 201.5z" />
<glyph unicode="&#xd9;" horiz-adv-x="1488" d="M197 1348h211v-846q0 -163 99 -271t249 -108t247 114t97 279v643l-27 189h199v-809q0 -251 -151.5 -408.5t-401.5 -157.5q-99 0 -179.5 27t-130.5 68t-87.5 97t-55.5 104t-28.5 100.5t-12.5 76t-2 39.5v674zM412 1792h225l254 -293l-113 -41z" />
<glyph unicode="&#xda;" horiz-adv-x="1488" d="M197 1348h211v-846q0 -163 99 -271t249 -108t247 114t97 279v643l-27 189h199v-809q0 -251 -151.5 -408.5t-401.5 -157.5q-99 0 -179.5 27t-130.5 68t-87.5 97t-55.5 104t-28.5 100.5t-12.5 76t-2 39.5v674zM584 1499l254 293h225l-367 -334z" />
<glyph unicode="&#xdb;" horiz-adv-x="1488" d="M197 1348h211v-846q0 -163 99 -271t249 -108t247 114t97 279v643l-27 189h199v-809q0 -251 -151.5 -408.5t-401.5 -157.5q-99 0 -179.5 27t-130.5 68t-87.5 97t-55.5 104t-28.5 100.5t-12.5 76t-2 39.5v674zM418 1499l254 293h127l254 -293l-109 -41l-211 191l-207 -191z " />
<glyph unicode="&#xdc;" horiz-adv-x="1488" d="M197 1348h211v-846q0 -163 99 -271t249 -108t247 114t97 279v643l-27 189h199v-809q0 -251 -151.5 -408.5t-401.5 -157.5q-99 0 -179.5 27t-130.5 68t-87.5 97t-55.5 104t-28.5 100.5t-12.5 76t-2 39.5v674zM444 1602q0 46 31 79t72 33t71.5 -33t30.5 -79q0 -47 -30 -80 t-72 -33t-72.5 33t-30.5 80zM821 1602q0 46 31 79t72 33t71.5 -33t30.5 -79q0 -47 -30 -80t-72 -33t-72.5 33t-30.5 80z" />
<glyph unicode="&#xdd;" horiz-adv-x="1042" d="M12 1348h238l266 -506l29 -82l39 86l268 502h184l-415 -754v-440l20 -154h-205v594l-317 608zM393 1499l254 293h225l-366 -334z" />
<glyph unicode="&#xde;" horiz-adv-x="1118" d="M203 1528l211 20v-323h170q69 0 132.5 -15.5t120 -48.5t98.5 -80t66.5 -114.5t24.5 -147.5q0 -178 -147.5 -308t-364.5 -130h-100v-227l20 -154h-205v1298zM414 532h133q114 0 199 85t85 202q0 121 -81.5 187.5t-202.5 66.5h-133v-541z" />
<glyph unicode="&#xdf;" horiz-adv-x="1175" d="M82 866v140h125v131q0 81 29 150.5t74.5 115.5t102.5 79t112.5 47.5t105.5 14.5q64 0 125.5 -14.5t117 -44t89.5 -83.5t34 -124q0 -57 -24 -115t-58.5 -104t-69.5 -88.5t-59 -84t-24 -75.5q0 -42 37 -91t90 -96t106 -96.5t90 -108t37 -114.5q0 -152 -99 -242t-263 -90 q-65 0 -126.5 19.5t-90.5 39.5l-29 19l12 113l6 45q5 -4 13.5 -10.5t34.5 -23t52.5 -29t62 -23t67.5 -10.5q81 0 130.5 34t49.5 111q0 47 -38 95t-92.5 91.5t-108.5 88.5t-92 101.5t-38 115.5t25.5 113.5t62 98.5t73 88.5t62 100t25.5 115.5q0 58 -41.5 93.5t-128.5 35.5 q-120 0 -196 -72t-76 -170v-942l20 -211h-192v866h-125z" />
<glyph unicode="&#xe0;" horiz-adv-x="1036" d="M100 227q0 169 160.5 274t415.5 105v74q0 115 -42.5 167t-111.5 52q-53 0 -102 -16t-82 -38.5t-58.5 -45t-37.5 -38.5l-11 -16l-92 134q5 6 15.5 17t48 38t80.5 47.5t112.5 37.5t145.5 17q63 0 116 -14t97 -44t69 -82t25 -122v-543q0 -55 23 -112.5t46 -88.5l23 -30 l-190 -27q-6 9 -16 24.5t-26.5 59.5t-17.5 84q-43 -66 -138 -117t-187 -51q-108 0 -186.5 71.5t-78.5 182.5zM190 1483h226l254 -293l-113 -41zM285 258q0 -55 39.5 -96t115.5 -41q61 0 129.5 41.5t106.5 85.5v227q-27 -1 -39.5 -1.5t-60 -6t-78 -13t-75 -24t-71.5 -38.5 t-47 -56.5t-20 -77.5z" />
<glyph unicode="&#xe1;" horiz-adv-x="1036" d="M100 227q0 169 160.5 274t415.5 105v74q0 115 -42.5 167t-111.5 52q-53 0 -102 -16t-82 -38.5t-58.5 -45t-37.5 -38.5l-11 -16l-92 134q5 6 15.5 17t48 38t80.5 47.5t112.5 37.5t145.5 17q63 0 116 -14t97 -44t69 -82t25 -122v-543q0 -55 23 -112.5t46 -88.5l23 -30 l-190 -27q-6 9 -16 24.5t-26.5 59.5t-17.5 84q-43 -66 -138 -117t-187 -51q-108 0 -186.5 71.5t-78.5 182.5zM285 258q0 -55 39.5 -96t115.5 -41q61 0 129.5 41.5t106.5 85.5v227q-27 -1 -39.5 -1.5t-60 -6t-78 -13t-75 -24t-71.5 -38.5t-47 -56.5t-20 -77.5zM362 1190 l254 293h226l-367 -334z" />
<glyph unicode="&#xe2;" horiz-adv-x="1036" d="M100 227q0 169 160.5 274t415.5 105v74q0 115 -42.5 167t-111.5 52q-53 0 -102 -16t-82 -38.5t-58.5 -45t-37.5 -38.5l-11 -16l-92 134q5 6 15.5 17t48 38t80.5 47.5t112.5 37.5t145.5 17q63 0 116 -14t97 -44t69 -82t25 -122v-543q0 -55 23 -112.5t46 -88.5l23 -30 l-190 -27q-6 9 -16 24.5t-26.5 59.5t-17.5 84q-43 -66 -138 -117t-187 -51q-108 0 -186.5 71.5t-78.5 182.5zM197 1190l254 293h127l253 -293l-108 -41l-211 190l-207 -190zM285 258q0 -55 39.5 -96t115.5 -41q61 0 129.5 41.5t106.5 85.5v227q-27 -1 -39.5 -1.5t-60 -6 t-78 -13t-75 -24t-71.5 -38.5t-47 -56.5t-20 -77.5z" />
<glyph unicode="&#xe3;" horiz-adv-x="1036" d="M100 227q0 169 160.5 274t415.5 105v74q0 115 -42.5 167t-111.5 52q-53 0 -102 -16t-82 -38.5t-58.5 -45t-37.5 -38.5l-11 -16l-92 134q5 6 15.5 17t48 38t80.5 47.5t112.5 37.5t145.5 17q63 0 116 -14t97 -44t69 -82t25 -122v-543q0 -55 23 -112.5t46 -88.5l23 -30 l-190 -27q-6 9 -16 24.5t-26.5 59.5t-17.5 84q-43 -66 -138 -117t-187 -51q-108 0 -186.5 71.5t-78.5 182.5zM186 1237q20 34 28 47.5t28 37.5t38 33.5t48.5 18t68.5 8.5q59 0 138.5 -38.5t115.5 -38.5q73 0 105 71l88 -53q-20 -34 -28 -47.5t-28 -37.5t-38 -33.5t-48.5 -18 t-68.5 -8.5q-53 0 -100 18t-86 36.5t-70 18.5q-58 0 -103 -67zM285 258q0 -55 39.5 -96t115.5 -41q61 0 129.5 41.5t106.5 85.5v227q-27 -1 -39.5 -1.5t-60 -6t-78 -13t-75 -24t-71.5 -38.5t-47 -56.5t-20 -77.5z" />
<glyph unicode="&#xe4;" horiz-adv-x="1036" d="M100 227q0 169 160.5 274t415.5 105v74q0 115 -42.5 167t-111.5 52q-53 0 -102 -16t-82 -38.5t-58.5 -45t-37.5 -38.5l-11 -16l-92 134q5 6 15.5 17t48 38t80.5 47.5t112.5 37.5t145.5 17q63 0 116 -14t97 -44t69 -82t25 -122v-543q0 -55 23 -112.5t46 -88.5l23 -30 l-190 -27q-6 9 -16 24.5t-26.5 59.5t-17.5 84q-43 -66 -138 -117t-187 -51q-108 0 -186.5 71.5t-78.5 182.5zM223 1292q0 46 31 79.5t72 33.5t71.5 -33.5t30.5 -79.5q0 -47 -30 -79.5t-72 -32.5t-72.5 32.5t-30.5 79.5zM285 258q0 -55 39.5 -96t115.5 -41q61 0 129.5 41.5 t106.5 85.5v227q-27 -1 -39.5 -1.5t-60 -6t-78 -13t-75 -24t-71.5 -38.5t-47 -56.5t-20 -77.5zM600 1292q0 46 30.5 79.5t71.5 33.5t72 -33.5t31 -79.5q0 -47 -30.5 -79.5t-72.5 -32.5t-72 32.5t-30 79.5z" />
<glyph unicode="&#xe5;" horiz-adv-x="1036" d="M100 227q0 169 160.5 274t415.5 105v74q0 115 -42.5 167t-111.5 52q-53 0 -102 -16t-82 -38.5t-58.5 -45t-37.5 -38.5l-11 -16l-92 134q5 6 15.5 17t48 38t80.5 47.5t112.5 37.5t145.5 17q63 0 116 -14t97 -44t69 -82t25 -122v-543q0 -55 23 -112.5t46 -88.5l23 -30 l-190 -27q-6 9 -16 24.5t-26.5 59.5t-17.5 84q-43 -66 -138 -117t-187 -51q-108 0 -186.5 71.5t-78.5 182.5zM285 258q0 -55 39.5 -96t115.5 -41q61 0 129.5 41.5t106.5 85.5v227q-27 -1 -39.5 -1.5t-60 -6t-78 -13t-75 -24t-71.5 -38.5t-47 -56.5t-20 -77.5zM332 1311 q0 73 54.5 126.5t127.5 53.5q74 0 130 -53.5t56 -126.5t-56 -127t-130 -54q-72 0 -127 54t-55 127zM408 1313q0 -44 31.5 -80.5t76.5 -36.5q49 0 79 36t30 81q0 43 -33.5 75.5t-75.5 32.5q-44 0 -76 -32t-32 -76z" />
<glyph unicode="&#xe6;" horiz-adv-x="1601" d="M100 238q0 75 38 140.5t109.5 116.5t182 80.5t246.5 30.5v74q0 115 -41 167t-109 52q-52 0 -101.5 -15.5t-83 -37.5t-60.5 -44.5t-39 -37.5l-13 -16l-90 131q5 6 15.5 17t48.5 38t81 47.5t113.5 37.5t147.5 17q90 0 162.5 -29.5t111.5 -91.5q120 123 307 123 q67 0 121.5 -20.5t90 -51.5t62 -76.5t40.5 -87.5t23 -92t11 -81.5t3 -65.5l-50 -55l-565 -19q2 -72 19 -134t50 -113.5t88 -81t126 -29.5q48 0 99.5 14.5t90 35.5t70 42.5t48.5 36.5l17 14l29 -157q-6 -6 -17.5 -15.5t-50.5 -34.5t-82.5 -44t-112 -34.5t-140.5 -15.5 q-117 0 -206 54.5t-142 148.5q-14 -22 -41 -50t-73.5 -65.5t-113.5 -62.5t-139 -25q-92 0 -157.5 39.5t-94.5 98t-29 127.5zM285 272q0 -60 40.5 -105.5t118.5 -45.5q53 0 118 39.5t104 79.5l39 39q-29 91 -29 202q-17 0 -52.5 -3t-97 -16t-113 -34t-90 -62t-38.5 -94z M872 614l412 15q-3 48 -12.5 92t-29 87.5t-55.5 70t-85 26.5t-88.5 -24t-66.5 -67t-45 -92t-30 -108z" />
<glyph unicode="&#xe7;" horiz-adv-x="983" d="M100 485q0 110 30.5 208.5t88 176t149 123t205.5 45.5q216 0 334 -143l-108 -137q-96 137 -230 137q-89 0 -156 -54.5t-99.5 -139t-32.5 -183.5q0 -73 17.5 -140t51 -123.5t91 -90t130.5 -33.5q49 0 98.5 14.5t85.5 34.5t65 40.5t44 35.5l15 14l28 -155 q-5 -6 -15.5 -15.5t-47 -34t-77.5 -43t-107.5 -34t-137.5 -15.5q-97 0 -178.5 44t-133.5 117t-81 164t-29 187zM346 -418l49 101q21 -21 61.5 -34.5t82.5 -13.5q116 0 116 76q0 29 -28.5 55t-79 58.5t-76.5 56.5l21 105h59q15 -20 46 -42t60.5 -40.5t58.5 -41t46.5 -54 t17.5 -68.5q0 -107 -69 -164t-168 -57q-109 0 -197 63z" />
<glyph unicode="&#xe8;" horiz-adv-x="1007" d="M104 485q0 111 27.5 208.5t81 175.5t142.5 123.5t202 45.5q66 0 119.5 -20.5t88.5 -52t61.5 -77.5t40.5 -87.5t23 -93t11.5 -83t3.5 -67.5l-47 -53h-571q2 -72 19.5 -136.5t51 -118.5t89.5 -86t128 -32q49 0 100 14.5t89 34.5t69 40.5t47 35.5l17 14l29 -155 q-6 -6 -17.5 -15.5t-50 -34t-82 -43t-111.5 -34t-139 -15.5q-97 0 -178.5 44t-133.5 117t-81 164t-29 187zM217 1483h225l254 -293l-112 -41zM297 635h422q-3 45 -12.5 87.5t-29.5 86t-57.5 70t-87.5 26.5q-182 0 -235 -270z" />
<glyph unicode="&#xe9;" horiz-adv-x="1007" d="M104 485q0 111 27.5 208.5t81 175.5t142.5 123.5t202 45.5q66 0 119.5 -20.5t88.5 -52t61.5 -77.5t40.5 -87.5t23 -93t11.5 -83t3.5 -67.5l-47 -53h-571q2 -72 19.5 -136.5t51 -118.5t89.5 -86t128 -32q49 0 100 14.5t89 34.5t69 40.5t47 35.5l17 14l29 -155 q-6 -6 -17.5 -15.5t-50 -34t-82 -43t-111.5 -34t-139 -15.5q-97 0 -178.5 44t-133.5 117t-81 164t-29 187zM297 635h422q-3 45 -12.5 87.5t-29.5 86t-57.5 70t-87.5 26.5q-182 0 -235 -270zM389 1190l254 293h225l-366 -334z" />
<glyph unicode="&#xea;" horiz-adv-x="1007" d="M104 485q0 111 27.5 208.5t81 175.5t142.5 123.5t202 45.5q66 0 119.5 -20.5t88.5 -52t61.5 -77.5t40.5 -87.5t23 -93t11.5 -83t3.5 -67.5l-47 -53h-571q2 -72 19.5 -136.5t51 -118.5t89.5 -86t128 -32q49 0 100 14.5t89 34.5t69 40.5t47 35.5l17 14l29 -155 q-6 -6 -17.5 -15.5t-50 -34t-82 -43t-111.5 -34t-139 -15.5q-97 0 -178.5 44t-133.5 117t-81 164t-29 187zM223 1190l254 293h127l254 -293l-108 -41l-211 190l-207 -190zM297 635h422q-3 45 -12.5 87.5t-29.5 86t-57.5 70t-87.5 26.5q-182 0 -235 -270z" />
<glyph unicode="&#xeb;" horiz-adv-x="1007" d="M104 485q0 111 27.5 208.5t81 175.5t142.5 123.5t202 45.5q66 0 119.5 -20.5t88.5 -52t61.5 -77.5t40.5 -87.5t23 -93t11.5 -83t3.5 -67.5l-47 -53h-571q2 -72 19.5 -136.5t51 -118.5t89.5 -86t128 -32q49 0 100 14.5t89 34.5t69 40.5t47 35.5l17 14l29 -155 q-6 -6 -17.5 -15.5t-50 -34t-82 -43t-111.5 -34t-139 -15.5q-97 0 -178.5 44t-133.5 117t-81 164t-29 187zM250 1292q0 46 30.5 79.5t71.5 33.5t72 -33.5t31 -79.5q0 -47 -30.5 -79.5t-72.5 -32.5t-72 32.5t-30 79.5zM297 635h422q-3 45 -12.5 87.5t-29.5 86t-57.5 70 t-87.5 26.5q-182 0 -235 -270zM627 1292q0 46 30.5 79.5t71.5 33.5t71.5 -33.5t30.5 -79.5q0 -47 -30 -79.5t-72 -32.5t-72 32.5t-30 79.5z" />
<glyph unicode="&#xec;" horiz-adv-x="561" d="M-43 1483h225l254 -293l-112 -41zM168 1008l199 22v-876l20 -154h-192v819z" />
<glyph unicode="&#xed;" horiz-adv-x="561" d="M129 1190l254 293h225l-366 -334zM168 1008l199 22v-876l20 -154h-192v819z" />
<glyph unicode="&#xee;" horiz-adv-x="561" d="M-37 1190l254 293h127l254 -293l-109 -41l-210 190l-207 -190zM168 1008l199 22v-876l20 -154h-192v819z" />
<glyph unicode="&#xef;" horiz-adv-x="561" d="M-10 1292q0 46 30.5 79.5t71.5 33.5t72 -33.5t31 -79.5q0 -47 -30.5 -79.5t-72.5 -32.5t-72 32.5t-30 79.5zM168 1008l199 22v-876l20 -154h-192v819zM367 1292q0 46 30.5 79.5t71.5 33.5t71.5 -33.5t30.5 -79.5q0 -47 -30 -79.5t-72 -32.5t-72 32.5t-30 79.5z" />
<glyph unicode="&#xf0;" horiz-adv-x="1122" d="M100 487q0 147 60 273t162 200t221 74q134 0 256 -94q-74 195 -181 315l-266 -114l-39 88l228 98q-57 43 -117.5 66.5t-106.5 23.5l80 129q170 -6 318 -141q44 18 118 50.5t101 43.5l2 -102l-154 -68q116 -140 182 -337t66 -394q0 -129 -29.5 -239.5t-88 -198 t-156 -137.5t-224.5 -50q-86 0 -156.5 27.5t-114 68t-76.5 97t-48.5 105t-24.5 101t-10.5 76t-1.5 39.5zM289 506q0 -109 32.5 -199.5t96.5 -146.5t147 -56q123 0 198 127.5t75 397.5q0 92 -17 166q-47 45 -122 78.5t-134 33.5q-83 0 -147 -55.5t-96.5 -146t-32.5 -199.5z " />
<glyph unicode="&#xf1;" horiz-adv-x="1189" d="M168 1008l199 22v-153q65 71 165.5 115t200.5 44q110 0 189 -62.5t79 -178.5v-645l21 -150h-193v590q0 157 -29.5 222t-119.5 65q-60 0 -114.5 -15.5t-89 -38t-60.5 -45t-38 -38.5l-11 -15v-571l20 -154h-192v819zM287 1237q20 34 28 47.5t28 37.5t38 33.5t48.5 18 t68.5 8.5q59 0 138.5 -38.5t115.5 -38.5q72 0 104 71l88 -53q-20 -34 -28 -47.5t-28 -37.5t-38 -33.5t-48.5 -18t-68.5 -8.5q-53 0 -100 18t-86 36.5t-70 18.5q-57 0 -102 -67z" />
<glyph unicode="&#xf2;" horiz-adv-x="1132" d="M100 487q0 242 136.5 396.5t365.5 154.5q193 0 311.5 -130.5t118.5 -381.5q0 -149 -58 -273.5t-174 -202t-268 -77.5q-86 0 -156.5 27.5t-114 68t-76.5 97t-48.5 105t-24.5 101t-10.5 76t-1.5 39.5zM242 1483h225l254 -293l-113 -41zM289 506q0 -167 75.5 -281 t200.5 -114q126 0 202.5 114.5t76.5 280.5t-76.5 280.5t-202.5 114.5q-125 0 -200.5 -114t-75.5 -281z" />
<glyph unicode="&#xf3;" horiz-adv-x="1132" d="M100 487q0 242 136.5 396.5t365.5 154.5q193 0 311.5 -130.5t118.5 -381.5q0 -149 -58 -273.5t-174 -202t-268 -77.5q-86 0 -156.5 27.5t-114 68t-76.5 97t-48.5 105t-24.5 101t-10.5 76t-1.5 39.5zM289 506q0 -167 75.5 -281t200.5 -114q126 0 202.5 114.5t76.5 280.5 t-76.5 280.5t-202.5 114.5q-125 0 -200.5 -114t-75.5 -281zM414 1190l254 293h225l-367 -334z" />
<glyph unicode="&#xf4;" horiz-adv-x="1132" d="M100 487q0 242 136.5 396.5t365.5 154.5q193 0 311.5 -130.5t118.5 -381.5q0 -149 -58 -273.5t-174 -202t-268 -77.5q-86 0 -156.5 27.5t-114 68t-76.5 97t-48.5 105t-24.5 101t-10.5 76t-1.5 39.5zM248 1190l254 293h127l254 -293l-109 -41l-211 190l-207 -190zM289 506 q0 -167 75.5 -281t200.5 -114q126 0 202.5 114.5t76.5 280.5t-76.5 280.5t-202.5 114.5q-125 0 -200.5 -114t-75.5 -281z" />
<glyph unicode="&#xf5;" horiz-adv-x="1132" d="M100 487q0 242 136.5 396.5t365.5 154.5q193 0 311.5 -130.5t118.5 -381.5q0 -149 -58 -273.5t-174 -202t-268 -77.5q-86 0 -156.5 27.5t-114 68t-76.5 97t-48.5 105t-24.5 101t-10.5 76t-1.5 39.5zM238 1237q20 34 28 47.5t28 37.5t38 33.5t48.5 18t68.5 8.5 q37 0 75 -12t63.5 -26.5t57 -26.5t57.5 -12q73 0 105 71l88 -53q-20 -34 -28 -47.5t-28 -37.5t-38 -33.5t-48.5 -18t-68.5 -8.5q-53 0 -100 18t-86 36.5t-70 18.5q-57 0 -102 -67zM289 506q0 -167 75.5 -281t200.5 -114q126 0 202.5 114.5t76.5 280.5t-76.5 280.5 t-202.5 114.5q-125 0 -200.5 -114t-75.5 -281z" />
<glyph unicode="&#xf6;" horiz-adv-x="1132" d="M100 487q0 242 136.5 396.5t365.5 154.5q193 0 311.5 -130.5t118.5 -381.5q0 -149 -58 -273.5t-174 -202t-268 -77.5q-86 0 -156.5 27.5t-114 68t-76.5 97t-48.5 105t-24.5 101t-10.5 76t-1.5 39.5zM274 1292q0 46 31 79.5t72 33.5t71.5 -33.5t30.5 -79.5 q0 -47 -30 -79.5t-72 -32.5t-72.5 32.5t-30.5 79.5zM289 506q0 -167 75.5 -281t200.5 -114q126 0 202.5 114.5t76.5 280.5t-76.5 280.5t-202.5 114.5q-125 0 -200.5 -114t-75.5 -281zM651 1292q0 46 31 79.5t72 33.5t71.5 -33.5t30.5 -79.5q0 -47 -30 -79.5t-72 -32.5 t-72.5 32.5t-30.5 79.5z" />
<glyph unicode="&#xf7;" horiz-adv-x="968" d="M178 442v142h635l-41 -142h-594zM358 215q0 51 36 88t87 37t87 -37t36 -88q0 -54 -36 -91.5t-87 -37.5t-87 37.5t-36 91.5zM358 834q0 51 36 87.5t87 36.5t87 -36.5t36 -87.5q0 -54 -36 -91.5t-87 -37.5t-87 37.5t-36 91.5z" />
<glyph unicode="&#xf8;" horiz-adv-x="1132" d="M96 487q0 242 137.5 396.5t368.5 154.5q7 0 22.5 -1t22.5 -1l74 310h117l-80 -332q129 -44 203.5 -168t74.5 -320q0 -149 -58.5 -273.5t-175.5 -202t-270 -77.5q-4 0 -12 1t-12 1l-76 -317h-110l77 334q-60 18 -109.5 53.5t-80 76.5t-53.5 92t-34 92.5t-17.5 85t-7.5 63 t-1 32.5zM293 506q0 -117 37.5 -214t105.5 -147l178 756q-24 6 -49 6q-123 0 -197.5 -116.5t-74.5 -284.5zM539 104h26q123 0 198 117t75 285q0 105 -31.5 195t-89.5 145z" />
<glyph unicode="&#xf9;" horiz-adv-x="1177" d="M158 1008l198 22v-610q0 -62 3.5 -105t13 -80t26 -58t43 -32.5t64.5 -11.5q60 0 114.5 16t89 38.5t60.5 45t38 38.5l11 16v532l-26 189l198 22v-799q0 -55 23 -112.5t46 -88.5l23 -30l-190 -27q-7 10 -16.5 26.5t-26 63.5t-16.5 89q-60 -76 -169.5 -127.5t-211.5 -51.5 q-110 0 -189.5 63t-79.5 179v604zM264 1483h225l254 -293l-112 -41z" />
<glyph unicode="&#xfa;" horiz-adv-x="1177" d="M158 1008l198 22v-610q0 -62 3.5 -105t13 -80t26 -58t43 -32.5t64.5 -11.5q60 0 114.5 16t89 38.5t60.5 45t38 38.5l11 16v532l-26 189l198 22v-799q0 -55 23 -112.5t46 -88.5l23 -30l-190 -27q-7 10 -16.5 26.5t-26 63.5t-16.5 89q-60 -76 -169.5 -127.5t-211.5 -51.5 q-110 0 -189.5 63t-79.5 179v604zM436 1190l254 293h225l-366 -334z" />
<glyph unicode="&#xfb;" horiz-adv-x="1177" d="M158 1008l198 22v-610q0 -62 3.5 -105t13 -80t26 -58t43 -32.5t64.5 -11.5q60 0 114.5 16t89 38.5t60.5 45t38 38.5l11 16v532l-26 189l198 22v-799q0 -55 23 -112.5t46 -88.5l23 -30l-190 -27q-7 10 -16.5 26.5t-26 63.5t-16.5 89q-60 -76 -169.5 -127.5t-211.5 -51.5 q-110 0 -189.5 63t-79.5 179v604zM270 1190l254 293h127l254 -293l-108 -41l-211 190l-207 -190z" />
<glyph unicode="&#xfc;" horiz-adv-x="1177" d="M158 1008l198 22v-610q0 -62 3.5 -105t13 -80t26 -58t43 -32.5t64.5 -11.5q60 0 114.5 16t89 38.5t60.5 45t38 38.5l11 16v532l-26 189l198 22v-799q0 -55 23 -112.5t46 -88.5l23 -30l-190 -27q-7 10 -16.5 26.5t-26 63.5t-16.5 89q-60 -76 -169.5 -127.5t-211.5 -51.5 q-110 0 -189.5 63t-79.5 179v604zM297 1292q0 46 30.5 79.5t71.5 33.5t72 -33.5t31 -79.5q0 -47 -30.5 -79.5t-72.5 -32.5t-72 32.5t-30 79.5zM674 1292q0 46 30.5 79.5t71.5 33.5t72 -33.5t31 -79.5q0 -47 -30.5 -79.5t-72.5 -32.5t-72 32.5t-30 79.5z" />
<glyph unicode="&#xfd;" horiz-adv-x="972" d="M-29 -301q61 -21 105 -21q83 0 153 54.5t111 163.5l43 112l-281 830l-90 170l201 26l240 -682l26 -149l43 149l258 656l181 26l-484 -1206q-63 -157 -161.5 -241.5t-209.5 -84.5q-45 0 -106 23zM375 1190l254 293h225l-367 -334z" />
<glyph unicode="&#xfe;" horiz-adv-x="1132" d="M168 1526l199 22v-647q142 133 290 133q155 0 262 -136t107 -372q0 -147 -62.5 -273t-178.5 -203t-259 -77q-36 0 -159 13v-324l20 -154h-192v1829zM367 121l121 -12q41 -3 71 -3q113 0 195 120t82 282q0 173 -70.5 280t-173.5 107q-55 0 -114 -36t-111 -103v-635z" />
<glyph unicode="&#xff;" horiz-adv-x="972" d="M-29 -301q61 -21 105 -21q83 0 153 54.5t111 163.5l43 112l-281 830l-90 170l201 26l240 -682l26 -149l43 149l258 656l181 26l-484 -1206q-63 -157 -161.5 -241.5t-209.5 -84.5q-45 0 -106 23zM236 1292q0 46 30.5 79.5t71.5 33.5t71.5 -33.5t30.5 -79.5 q0 -47 -30 -79.5t-72 -32.5t-72 32.5t-30 79.5zM612 1292q0 46 31 79.5t72 33.5t71.5 -33.5t30.5 -79.5q0 -47 -30 -79.5t-72 -32.5t-72.5 32.5t-30.5 79.5z" />
<glyph unicode="&#x152;" horiz-adv-x="1712" d="M94 682q0 165 47.5 295.5t127.5 209.5t179 120t209 41h934v-152h-489v-430h428l-41 -152h-387v-462h512l-41 -152h-854q-186 0 -329.5 90.5t-219.5 245.5t-76 346zM293 670q0 -142 51 -264t144 -195.5t206 -73.5h224v1082h-224q-113 0 -206 -77t-144 -202.5t-51 -269.5z " />
<glyph unicode="&#x153;" horiz-adv-x="1753" d="M104 487q0 242 136.5 396.5t365.5 154.5q215 0 340 -159q120 159 338 159q66 0 119.5 -20.5t88.5 -51.5t61.5 -77t40.5 -87.5t23 -93t11.5 -83.5t3.5 -68l-47 -53h-569q1 -57 12 -110t33.5 -101.5t55 -84.5t80.5 -57.5t106 -21.5q49 0 100 14.5t89 34.5t69 40.5t47 35.5 l16 14l29 -153q-6 -6 -17.5 -15.5t-50 -34t-82 -43t-111.5 -34t-139 -15.5q-104 0 -191.5 49.5t-141.5 131.5q-159 -181 -383 -181q-86 0 -156.5 27.5t-114.5 68t-76.5 97t-48 105t-25 101t-11 76t-1.5 39.5zM293 506q0 -109 32.5 -199.5t96.5 -146.5t147 -56t147.5 56 t97 146.5t32.5 199.5q0 167 -76 284t-201 117q-83 0 -147 -55.5t-96.5 -146t-32.5 -199.5zM1026 635h420q-3 45 -12.5 87.5t-29.5 86t-57 70t-87 26.5q-181 0 -234 -270z" />
<glyph unicode="&#x178;" horiz-adv-x="1042" d="M12 1348h238l266 -506l29 -82l39 86l268 502h184l-415 -754v-440l20 -154h-205v594l-317 608zM254 1602q0 46 30.5 79t71.5 33t72 -33t31 -79q0 -47 -30.5 -80t-72.5 -33t-72 33t-30 80zM631 1602q0 46 30.5 79t71.5 33t72 -33t31 -79q0 -47 -30.5 -80t-72.5 -33t-72 33 t-30 80z" />
<glyph unicode="&#x2c6;" horiz-adv-x="823" d="M92 1190l254 293h127l254 -293l-109 -41l-210 190l-207 -190z" />
<glyph unicode="&#x2dc;" horiz-adv-x="778" d="M76 1237q20 34 28 47.5t28 37.5t38 33.5t48.5 18t68.5 8.5q59 0 138.5 -38.5t115.5 -38.5q72 0 104 71l88 -53q-20 -34 -28 -47.5t-28 -37.5t-38 -33.5t-48.5 -18t-68.5 -8.5q-53 0 -100 18t-86 36.5t-70 18.5q-57 0 -102 -67z" />
<glyph unicode="&#x2000;" horiz-adv-x="900" />
<glyph unicode="&#x2001;" horiz-adv-x="1800" />
<glyph unicode="&#x2002;" horiz-adv-x="900" />
<glyph unicode="&#x2003;" horiz-adv-x="1800" />
<glyph unicode="&#x2004;" horiz-adv-x="600" />
<glyph unicode="&#x2005;" horiz-adv-x="450" />
<glyph unicode="&#x2006;" horiz-adv-x="300" />
<glyph unicode="&#x2007;" horiz-adv-x="300" />
<glyph unicode="&#x2008;" horiz-adv-x="225" />
<glyph unicode="&#x2009;" horiz-adv-x="360" />
<glyph unicode="&#x200a;" horiz-adv-x="100" />
<glyph unicode="&#x2010;" horiz-adv-x="618" d="M63 430v152h506l-41 -152h-465z" />
<glyph unicode="&#x2011;" horiz-adv-x="618" d="M63 430v152h506l-41 -152h-465z" />
<glyph unicode="&#x2012;" horiz-adv-x="618" d="M63 430v152h506l-41 -152h-465z" />
<glyph unicode="&#x2013;" horiz-adv-x="925" d="M63 430v152h814l-41 -152h-773z" />
<glyph unicode="&#x2014;" horiz-adv-x="1390" d="M63 430v152h1276l-41 -152h-1235z" />
<glyph unicode="&#x2018;" horiz-adv-x="552" d="M143 1008q0 88 55 196t158 176l74 -71q-42 -40 -78.5 -99.5t-36.5 -105.5q0 -39 16 -58.5t58 -37.5q0 -65 -31 -106.5t-92 -41.5q-51 0 -87 38.5t-36 109.5z" />
<glyph unicode="&#x2019;" horiz-adv-x="552" d="M123 932q42 40 78.5 99.5t36.5 105.5q0 39 -16 58.5t-58 37.5v18q0 55 34 92t89 37q51 0 87 -38t36 -109q0 -89 -55 -197t-158 -176z" />
<glyph unicode="&#x201a;" horiz-adv-x="552" d="M123 -217q42 40 78.5 99.5t36.5 105.5q0 39 -16 58.5t-58 37.5v18q0 55 34 92t89 37q51 0 87 -38t36 -109q0 -89 -55 -197t-158 -176z" />
<glyph unicode="&#x201c;" horiz-adv-x="911" d="M143 1008q0 88 55 196t158 176l74 -71q-42 -40 -78.5 -99.5t-36.5 -105.5q0 -39 16 -58.5t58 -37.5q0 -65 -31 -106.5t-92 -41.5q-51 0 -87 38.5t-36 109.5zM502 1008q0 88 55 196t158 176l73 -71q-42 -40 -78 -99t-36 -106q0 -39 16 -58.5t58 -37.5q0 -65 -31 -106.5 t-92 -41.5q-51 0 -87 38.5t-36 109.5z" />
<glyph unicode="&#x201d;" horiz-adv-x="911" d="M123 932q42 40 78.5 99.5t36.5 105.5q0 39 -16 58.5t-58 37.5v18q0 55 34 92t89 37q51 0 87 -38t36 -109q0 -89 -55 -197t-158 -176zM481 932q42 40 78.5 99.5t36.5 105.5q0 39 -16 58.5t-58 37.5v18q0 55 34 92t89 37q51 0 87 -38t36 -109q0 -89 -55 -197t-158 -176z " />
<glyph unicode="&#x201e;" horiz-adv-x="911" d="M123 -217q42 40 78.5 99.5t36.5 105.5q0 39 -16 58.5t-58 37.5v18q0 55 34 92t89 37q51 0 87 -38t36 -109q0 -89 -55 -197t-158 -176zM481 -217q42 40 78.5 99.5t36.5 105.5q0 39 -16 58.5t-58 37.5v18q0 55 34 92t89 37q51 0 87 -38t36 -109q0 -89 -55 -197t-158 -176z " />
<glyph unicode="&#x2022;" horiz-adv-x="868" d="M158 506q0 113 79.5 191.5t194.5 78.5q113 0 193 -79t80 -191q0 -115 -80 -195t-193 -80q-115 0 -194.5 79.5t-79.5 195.5z" />
<glyph unicode="&#x2026;" horiz-adv-x="1357" d="M158 84q0 44 32 76.5t78 32.5q44 0 76.5 -32.5t32.5 -76.5q0 -46 -32.5 -78.5t-76.5 -32.5q-46 0 -78 32.5t-32 78.5zM578 84q0 44 32 76.5t78 32.5q44 0 76.5 -32.5t32.5 -76.5q0 -46 -32.5 -78.5t-76.5 -32.5q-46 0 -78 32.5t-32 78.5zM987 84q0 44 32.5 76.5 t78.5 32.5q44 0 76 -32.5t32 -76.5q0 -46 -32 -78.5t-76 -32.5q-46 0 -78.5 32.5t-32.5 78.5z" />
<glyph unicode="&#x202f;" horiz-adv-x="360" />
<glyph unicode="&#x2039;" horiz-adv-x="761" d="M82 506l498 469l79 -131l-354 -340l354 -336l-79 -131z" />
<glyph unicode="&#x203a;" horiz-adv-x="761" d="M102 168l355 336l-355 340l80 131l498 -469l-498 -469z" />
<glyph unicode="&#x205f;" horiz-adv-x="450" />
<glyph unicode="&#x20ac;" horiz-adv-x="1230" d="M39 438v142h102q-2 20 -2 65q0 35 4 105h-104v141h131q62 227 228 354t384 127q91 0 185 -22.5t157 -63.5l-49 -151q-124 96 -309 96q-144 0 -258.5 -92.5t-167.5 -247.5h649l-47 -141h-633q-4 -46 -4 -84q0 -32 4 -86h578l-47 -142h-504q45 -151 152.5 -233t271.5 -82 q86 0 178 30t158 85v-162q-162 -103 -373 -103q-204 0 -357 121t-204 344h-123z" />
<glyph unicode="&#x2122;" horiz-adv-x="1642" d="M55 1346v98h633v-98h-246v-578l13 -94h-158v672h-242zM731 1444h90l340 -481l305 481h88v-676l13 -94h-158v461l-254 -396l-285 389v-360l13 -94h-138v659z" />
<glyph unicode="&#xe000;" horiz-adv-x="1034" d="M0 0v1034h1034v-1034h-1034z" />
</font>
</defs>
</svg>
